<?xml version="1.0" standalone="no"?>
<!DOCTYPE svg PUBLIC "-//W3C//DTD SVG 1.1//EN" "http://www.w3.org/Graphics/SVG/1.1/DTD/svg11.dtd" >
<svg>
<metadata>
Created by FontForge 20120731 at Wed Mar 19 15:20:35 2025
 By www
(c) 2015-2017 Apple Inc. All rights reserved.
</metadata>
<defs>
<font id="SFProText-Ultralight" horiz-adv-x="2978" >
  <font-face 
    font-family="SF Pro Text"
    font-weight="200"
    font-stretch="normal"
    units-per-em="2048"
    panose-1="0 0 0 0 0 0 0 0 0 0"
    ascent="1638"
    descent="-410"
    x-height="1076"
    cap-height="1443"
    bbox="-777 -1437 4929 2548"
    underline-thickness="61"
    underline-position="-309"
    unicode-range="U+0020-100742"
  />
<missing-glyph horiz-adv-x="2048" 
d="M100 1611v339h1848v-339h-1848zM100 1190v339h1848v-339h-1848zM100 769v339h1848v-339h-1848zM100 348v339h1848v-339h-1848zM100 -73v339h1848v-339h-1848zM100 -494v339h1848v-339h-1848z" />
    <glyph glyph-name="uni10004C.small" unicode="&#x2b;&#x20dd;" horiz-adv-x="1825" 
d="M913 -52q-156 0 -299 61.5t-247 165t-165.5 247t-61.5 299.5q0 208 104 386t282 282t386 104t386.5 -104t282.5 -282t104 -386q0 -209 -104 -387t-281.5 -282t-386.5 -104zM913 18q191 0 352.5 94t255.5 256t94 353t-94 352.5t-256 255.5t-353 94t-352.5 -94
t-255.5 -255.5t-94 -352.5t94 -353t256 -256t353 -94zM911 348q-15 0 -24.5 10.5t-9.5 26.5v299h-303q-16 0 -27 10t-11 25q0 16 10.5 26t27.5 10h303v303q0 17 9.5 27.5t24.5 10.5q17 0 27 -10.5t10 -27.5v-303h302q17 0 28 -10t11 -26q0 -15 -11 -25t-28 -10h-302v-299
q0 -17 -10 -27t-27 -10z" />
    <glyph glyph-name="uni10004E.small" unicode="&#x2212;&#x20dd;" horiz-adv-x="1825" 
d="M913 -52q-156 0 -299 61.5t-247 165t-165.5 247t-61.5 299.5q0 208 104 386t282 282t386 104t386.5 -104t282.5 -282t104 -386q0 -209 -104 -387t-281.5 -282t-386.5 -104zM913 18q191 0 352.5 94t255.5 256t94 353t-94 352.5t-256 255.5t-353 94t-352.5 -94
t-255.5 -255.5t-94 -352.5t94 -353t256 -256t353 -94zM559 684q-16 0 -27 10t-11 25q0 16 10.5 26t27.5 10h706q17 0 28 -10t11 -26t-11 -25.5t-28 -9.5h-706z" />
    <glyph glyph-name="uni100050.small" unicode="&#xd7;&#x20dd;" horiz-adv-x="1825" 
d="M913 -52q-156 0 -299 61.5t-247 165t-165.5 247t-61.5 299.5q0 208 104 386t282 282t386 104t386.5 -104t282.5 -282t104 -386q0 -209 -104 -387t-281.5 -282t-386.5 -104zM913 18q191 0 352.5 94t255.5 256t94 353t-94 352.5t-256 255.5t-353 94t-352.5 -94
t-255.5 -255.5t-94 -352.5t94 -353t256 -256t353 -94zM633 405q-15 0 -25.5 10t-10.5 25q0 14 12 26l253 254l-253 253q-12 12 -12 26q0 15 10.5 25t25.5 10q13 0 27 -12l252 -253l253 253q12 12 27 12t25.5 -10t10.5 -24q0 -15 -12 -27l-253 -253l253 -254q12 -12 12 -26
q0 -15 -10.5 -25t-25.5 -10q-14 0 -28 12l-252 252l-252 -252q-11 -12 -27 -12z" />
    <glyph glyph-name="uni100054.small" unicode="&#x3d;&#x20dd;" horiz-adv-x="1825" 
d="M913 -52q-156 0 -299 61.5t-247 165t-165.5 247t-61.5 299.5q0 208 104 386t282 282t386 104t386.5 -104t282.5 -282t104 -386q0 -209 -104 -387t-281.5 -282t-386.5 -104zM913 18q191 0 352.5 94t255.5 256t94 353t-94 352.5t-256 255.5t-353 94t-352.5 -94
t-255.5 -255.5t-94 -352.5t94 -353t256 -256t353 -94zM591 826q-16 0 -26 9t-10 24t10 24t26 9h641q36 0 36 -33q0 -15 -10 -24t-26 -9h-641zM591 547q-16 0 -26 9t-10 24t10 24t26 9h641q36 0 36 -33q0 -15 -10 -24t-26 -9h-641z" />
    <glyph glyph-name="uni10003A.small" unicode="&#x31;&#x20dd;" horiz-adv-x="1825" 
d="M913 -52q-156 0 -299 61.5t-247 165t-165.5 247t-61.5 299.5q0 208 104 386t282 282t386 104t386.5 -104t282.5 -282t104 -386q0 -209 -104 -387t-281.5 -282t-386.5 -104zM913 18q191 0 352.5 94t255.5 256t94 353t-94 352.5t-256 255.5t-353 94t-352.5 -94
t-255.5 -255.5t-94 -352.5t94 -353t256 -256t353 -94zM929 367q-15 0 -24.5 10.5t-9.5 26.5v598h-4l-142 -92q-8 -6 -19 -6t-19 8t-8 20q0 16 15 26l160 105q24 18 48 18q17 0 27.5 -10t10.5 -28v-639q0 -17 -9.5 -27t-25.5 -10z" />
    <glyph glyph-name="uni10003C.small" unicode="&#x32;&#x20dd;" horiz-adv-x="1825" 
d="M913 -52q-156 0 -299 61.5t-247 165t-165.5 247t-61.5 299.5q0 208 104 386t282 282t386 104t386.5 -104t282.5 -282t104 -386q0 -209 -104 -387t-281.5 -282t-386.5 -104zM913 18q191 0 352.5 94t255.5 256t94 353t-94 352.5t-256 255.5t-353 94t-352.5 -94
t-255.5 -255.5t-94 -352.5t94 -353t256 -256t353 -94zM719 373q-16 0 -25 9t-9 23t12 29l266 293q45 49 66.5 87.5t21.5 79.5q0 59 -40.5 94.5t-108.5 35.5q-65 0 -109 -34.5t-52 -91.5q-7 -27 -32 -27q-31 0 -31 32q0 11 3 24q13 68 75.5 112.5t144.5 44.5q98 0 157 -51
t59 -137q0 -52 -27 -100.5t-88 -115.5l-220 -242v-5h335q14 0 22.5 -8t8.5 -22q0 -13 -9 -21.5t-22 -8.5h-398z" />
    <glyph glyph-name="uni10003E.small" unicode="&#x33;&#x20dd;" horiz-adv-x="1825" 
d="M913 -52q-156 0 -299 61.5t-247 165t-165.5 247t-61.5 299.5q0 208 104 386t282 282t386 104t386.5 -104t282.5 -282t104 -386q0 -209 -104 -387t-281.5 -282t-386.5 -104zM913 18q191 0 352.5 94t255.5 256t94 353t-94 352.5t-256 255.5t-353 94t-352.5 -94
t-255.5 -255.5t-94 -352.5t94 -353t256 -256t353 -94zM907 361q-85 0 -148.5 39t-81.5 103q-3 13 -3 25q0 14 9 22.5t23 8.5q23 0 32 -26q13 -51 59 -82.5t110 -31.5q79 0 128 40.5t49 105.5q0 60 -48 100t-121 40h-67q-13 0 -21 8t-8 21t8 21t21 8h62q63 0 106 39t43 96
q0 56 -42 91.5t-110 35.5q-61 0 -103 -30.5t-51 -82.5q-6 -27 -32 -27q-14 0 -22.5 9t-8.5 23q0 6 2 24q10 63 71.5 103t144.5 40q95 0 156.5 -50t61.5 -128q0 -61 -39.5 -109t-98.5 -58v-4q70 -7 116.5 -56t46.5 -116q0 -89 -68.5 -145.5t-175.5 -56.5z" />
    <glyph glyph-name="uni100040.small" unicode="&#x34;&#x20dd;" horiz-adv-x="1825" 
d="M913 -52q-156 0 -299 61.5t-247 165t-165.5 247t-61.5 299.5q0 208 104 386t282 282t386 104t386.5 -104t282.5 -282t104 -386q0 -209 -104 -387t-281.5 -282t-386.5 -104zM913 18q191 0 352.5 94t255.5 256t94 353t-94 352.5t-256 255.5t-353 94t-352.5 -94
t-255.5 -255.5t-94 -352.5t94 -353t256 -256t353 -94zM994 367q-15 0 -24 9.5t-9 25.5v132h-299q-24 0 -37.5 12.5t-13.5 33.5q0 17 12 39q99 162 281 425q26 40 70 40q24 0 38.5 -13.5t14.5 -35.5v-441h85q14 0 22.5 -8.5t8.5 -21.5t-8.5 -21.5t-22.5 -8.5h-85v-132
q0 -16 -9 -25.5t-24 -9.5zM961 594v424h-4q-194 -281 -276 -420v-4h280z" />
    <glyph glyph-name="uni100042.small" unicode="&#x35;&#x20dd;" horiz-adv-x="1825" 
d="M913 -52q-156 0 -299 61.5t-247 165t-165.5 247t-61.5 299.5q0 208 104 386t282 282t386 104t386.5 -104t282.5 -282t104 -386q0 -209 -104 -387t-281.5 -282t-386.5 -104zM913 18q191 0 352.5 94t255.5 256t94 353t-94 352.5t-256 255.5t-353 94t-352.5 -94
t-255.5 -255.5t-94 -352.5t94 -353t256 -256t353 -94zM902 361q-85 0 -144.5 38t-77.5 101q-4 9 -4 21q0 13 8 21.5t21 8.5q23 0 32 -25q16 -47 63 -77t108 -30q75 0 125 50.5t50 126.5t-46.5 123.5t-121.5 47.5q-43 0 -76.5 -16t-70.5 -54q-19 -18 -41 -18
q-19 0 -29.5 11.5t-8.5 30.5l25 306q3 44 48 44h335q13 0 20.5 -8t7.5 -21t-8 -21t-20 -8h-324l-22 -267h4q27 36 72.5 57t94.5 21q100 0 164 -63.5t64 -163.5q0 -106 -68.5 -171t-179.5 -65z" />
    <glyph glyph-name="uni100044.small" unicode="&#x36;&#x20dd;" horiz-adv-x="1825" 
d="M913 -52q-156 0 -299 61.5t-247 165t-165.5 247t-61.5 299.5q0 208 104 386t282 282t386 104t386.5 -104t282.5 -282t104 -386q0 -209 -104 -387t-281.5 -282t-386.5 -104zM913 18q191 0 352.5 94t255.5 256t94 353t-94 352.5t-256 255.5t-353 94t-352.5 -94
t-255.5 -255.5t-94 -352.5t94 -353t256 -256t353 -94zM917 361q-69 0 -124.5 30t-87.5 88q-43 76 -43 222q0 184 71.5 283.5t198.5 99.5q75 0 131.5 -36.5t69.5 -79.5q4 -12 4 -19q0 -13 -7.5 -20.5t-19.5 -7.5q-19 0 -37 25q-19 35 -57 56.5t-86 21.5q-94 0 -149 -84.5
t-55 -233.5v-8h4q59 123 207 123q96 0 161 -62.5t65 -160.5q0 -108 -68 -172.5t-178 -64.5zM916 418q81 0 129.5 48t48.5 128q0 76 -49 124t-127 48q-79 0 -129.5 -48.5t-50.5 -122.5q0 -77 50.5 -127t127.5 -50z" />
    <glyph glyph-name="uni100046.small" unicode="&#x37;&#x20dd;" horiz-adv-x="1825" 
d="M913 -52q-156 0 -299 61.5t-247 165t-165.5 247t-61.5 299.5q0 208 104 386t282 282t386 104t386.5 -104t282.5 -282t104 -386q0 -209 -104 -387t-281.5 -282t-386.5 -104zM913 18q191 0 352.5 94t255.5 256t94 353t-94 352.5t-256 255.5t-353 94t-352.5 -94
t-255.5 -255.5t-94 -352.5t94 -353t256 -256t353 -94zM795 364q-15 0 -25 9t-10 23q0 10 6 24l306 588v5h-365q-13 0 -21 8t-8 21t8 21t21 8h386q24 0 38.5 -12.5t14.5 -32.5q0 -16 -10 -37l-306 -600q-14 -25 -35 -25z" />
    <glyph glyph-name="uni100048.small" unicode="&#x38;&#x20dd;" horiz-adv-x="1825" 
d="M913 -52q-156 0 -299 61.5t-247 165t-165.5 247t-61.5 299.5q0 208 104 386t282 282t386 104t386.5 -104t282.5 -282t104 -386q0 -209 -104 -387t-281.5 -282t-386.5 -104zM913 18q191 0 352.5 94t255.5 256t94 353t-94 352.5t-256 255.5t-353 94t-352.5 -94
t-255.5 -255.5t-94 -352.5t94 -353t256 -256t353 -94zM912 361q-112 0 -183 57t-71 148q0 63 43 112t109 62v4q-56 17 -89.5 59.5t-33.5 96.5q0 80 63.5 132t161.5 52q99 0 162.5 -52t63.5 -132q0 -54 -34 -97t-89 -59v-4q66 -13 108.5 -62t42.5 -112q0 -90 -71 -147.5
t-183 -57.5zM912 766q70 0 115 37t45 94q0 58 -45 95t-115 37t-114.5 -37t-44.5 -95q0 -57 45 -94t114 -37zM913 415q82 0 134.5 43t52.5 109q0 64 -52.5 105.5t-134.5 41.5t-135.5 -41.5t-53.5 -105.5q0 -66 53.5 -109t135.5 -43z" />
    <glyph glyph-name="uni10004A.small" unicode="&#x39;&#x20dd;" horiz-adv-x="1825" 
d="M913 -52q-156 0 -299 61.5t-247 165t-165.5 247t-61.5 299.5q0 208 104 386t282 282t386 104t386.5 -104t282.5 -282t104 -386q0 -209 -104 -387t-281.5 -282t-386.5 -104zM913 18q191 0 352.5 94t255.5 256t94 353t-94 352.5t-256 255.5t-353 94t-352.5 -94
t-255.5 -255.5t-94 -352.5t94 -353t256 -256t353 -94zM895 361q-77 0 -135.5 38.5t-70.5 80.5q-3 9 -3 18q0 13 8 21t21 8q21 0 34 -24q21 -37 59.5 -59.5t86.5 -22.5q96 0 150.5 84.5t53.5 241.5h-4q-25 -60 -78 -94t-129 -34q-96 0 -161 64.5t-65 163.5q0 105 69 171
t177 66q119 0 187.5 -83t68.5 -241q0 -198 -69.5 -298.5t-199.5 -100.5zM907 675q78 0 129.5 50t51.5 124q0 76 -51.5 126.5t-127.5 50.5q-78 0 -128.5 -49t-50.5 -125q0 -77 49.5 -127t127.5 -50z" />
    <glyph glyph-name="uni100004.small" unicode="A&#x20dd;" horiz-adv-x="1825" 
d="M913 -52q-156 0 -299 61.5t-247 165t-165.5 247t-61.5 299.5q0 208 104 386t282 282t386 104t386.5 -104t282.5 -282t104 -386q0 -209 -104 -387t-281.5 -282t-386.5 -104zM913 18q191 0 352.5 94t255.5 256t94 353t-94 352.5t-256 255.5t-353 94t-352.5 -94
t-255.5 -255.5t-94 -352.5t94 -353t256 -256t353 -94zM656 364q-34 0 -34 31q0 4 5 21l238 630q12 34 47 34q34 0 47 -34l238 -630q5 -17 5 -22q0 -13 -9 -21.5t-23 -8.5q-25 0 -35 29l-73 197h-300l-73 -197q-9 -29 -33 -29zM782 648h260l-128 345h-4z" />
    <glyph glyph-name="uni100006.small" unicode="B&#x20dd;" horiz-adv-x="1825" 
d="M913 -52q-156 0 -299 61.5t-247 165t-165.5 247t-61.5 299.5q0 208 104 386t282 282t386 104t386.5 -104t282.5 -282t104 -386q0 -209 -104 -387t-281.5 -282t-386.5 -104zM913 18q191 0 352.5 94t255.5 256t94 353t-94 352.5t-256 255.5t-353 94t-352.5 -94
t-255.5 -255.5t-94 -352.5t94 -353t256 -256t353 -94zM710 370q-35 0 -35 38v629q0 38 35 38h228q92 0 150 -48.5t58 -125.5q0 -59 -32.5 -102.5t-84.5 -55.5v-4q73 -10 116 -57t43 -117q0 -91 -66.5 -143t-180.5 -52h-231zM742 760h168q75 0 121.5 36t46.5 94
q0 61 -40 94.5t-112 33.5h-184v-258zM742 426h169q206 0 206 139q0 65 -44.5 102.5t-123.5 37.5h-207v-279z" />
    <glyph glyph-name="uni100008.small" unicode="C&#x20dd;" horiz-adv-x="1825" 
d="M913 -52q-156 0 -299 61.5t-247 165t-165.5 247t-61.5 299.5q0 208 104 386t282 282t386 104t386.5 -104t282.5 -282t104 -386q0 -209 -104 -387t-281.5 -282t-386.5 -104zM913 18q191 0 352.5 94t255.5 256t94 353t-94 352.5t-256 255.5t-353 94t-352.5 -94
t-255.5 -255.5t-94 -352.5t94 -353t256 -256t353 -94zM918 361q-140 0 -225.5 99.5t-85.5 261.5t86 262t225 100q99 0 175.5 -52t94.5 -132q4 -19 4 -26q0 -32 -31 -32q-24 0 -31 26q-14 71 -71.5 113t-139.5 42q-108 0 -175.5 -83.5t-67.5 -217.5t67.5 -217.5t175.5 -83.5
q82 0 139.5 42t71.5 113q7 27 31 27q31 0 31 -33q0 -7 -4 -26q-18 -80 -94 -131.5t-176 -51.5z" />
    <glyph glyph-name="uni10000A.small" unicode="D&#x20dd;" horiz-adv-x="1825" 
d="M913 -52q-156 0 -299 61.5t-247 165t-165.5 247t-61.5 299.5q0 208 104 386t282 282t386 104t386.5 -104t282.5 -282t104 -386q0 -209 -104 -387t-281.5 -282t-386.5 -104zM913 18q191 0 352.5 94t255.5 256t94 353t-94 352.5t-256 255.5t-353 94t-352.5 -94
t-255.5 -255.5t-94 -352.5t94 -353t256 -256t353 -94zM694 373q-32 0 -32 39v621q0 38 32 38h206q152 0 239 -92t87 -254q0 -168 -86 -260t-240 -92h-206zM729 432h163q124 0 193 74.5t69 217.5q0 136 -70 212.5t-192 76.5h-163v-581z" />
    <glyph glyph-name="uni10000C.small" unicode="E&#x20dd;" horiz-adv-x="1825" 
d="M913 -52q-156 0 -299 61.5t-247 165t-165.5 247t-61.5 299.5q0 208 104 386t282 282t386 104t386.5 -104t282.5 -282t104 -386q0 -209 -104 -387t-281.5 -282t-386.5 -104zM913 18q191 0 352.5 94t255.5 256t94 353t-94 352.5t-256 255.5t-353 94t-352.5 -94
t-255.5 -255.5t-94 -352.5t94 -353t256 -256t353 -94zM724 373q-32 0 -32 39v621q0 38 32 38h379q30 0 30 -30q0 -13 -8 -21.5t-22 -8.5h-343v-252h324q31 0 31 -29t-31 -29h-324v-268h343q14 0 22 -8.5t8 -21.5t-8 -21.5t-22 -8.5h-379z" />
    <glyph glyph-name="uni10000E.small" unicode="F&#x20dd;" horiz-adv-x="1825" 
d="M913 -52q-156 0 -299 61.5t-247 165t-165.5 247t-61.5 299.5q0 208 104 386t282 282t386 104t386.5 -104t282.5 -282t104 -386q0 -209 -104 -387t-281.5 -282t-386.5 -104zM913 18q191 0 352.5 94t255.5 256t94 353t-94 352.5t-256 255.5t-353 94t-352.5 -94
t-255.5 -255.5t-94 -352.5t94 -353t256 -256t353 -94zM739 367q-16 0 -25 10t-9 27v629q0 38 32 38h377q30 0 30 -30q0 -13 -8 -21.5t-22 -8.5h-341v-260h312q30 0 30 -30q0 -29 -30 -29h-312v-288q0 -37 -34 -37z" />
    <glyph glyph-name="uni100010.small" unicode="G&#x20dd;" horiz-adv-x="1825" 
d="M913 -52q-156 0 -299 61.5t-247 165t-165.5 247t-61.5 299.5q0 208 104 386t282 282t386 104t386.5 -104t282.5 -282t104 -386q0 -209 -104 -387t-281.5 -282t-386.5 -104zM913 18q191 0 352.5 94t255.5 256t94 353t-94 352.5t-256 255.5t-353 94t-352.5 -94
t-255.5 -255.5t-94 -352.5t94 -353t256 -256t353 -94zM919 361q-140 0 -226 99t-86 262t85.5 262.5t225.5 99.5q109 0 180.5 -56t89.5 -128q4 -18 4 -26q0 -32 -31 -32q-23 0 -31 26q-14 71 -71 113t-140 42q-108 0 -175 -83.5t-67 -217.5t67.5 -217.5t174.5 -83.5
q99 0 153.5 56t54.5 155v41h-195q-12 0 -20 8t-8 20t7.5 20t20.5 8h230q34 0 34 -37v-55q0 -125 -75 -200.5t-202 -75.5z" />
    <glyph glyph-name="uni100012.small" unicode="H&#x20dd;" horiz-adv-x="1825" 
d="M913 -52q-156 0 -299 61.5t-247 165t-165.5 247t-61.5 299.5q0 208 104 386t282 282t386 104t386.5 -104t282.5 -282t104 -386q0 -209 -104 -387t-281.5 -282t-386.5 -104zM913 18q191 0 352.5 94t255.5 256t94 353t-94 352.5t-256 255.5t-353 94t-352.5 -94
t-255.5 -255.5t-94 -352.5t94 -353t256 -256t353 -94zM672 367q-15 0 -24.5 10.5t-9.5 26.5v637q0 17 9.5 26.5t24.5 9.5q35 0 35 -36v-276h410v276q0 17 9.5 26.5t24.5 9.5q35 0 35 -36v-637q0 -37 -35 -37q-15 0 -24.5 10.5t-9.5 26.5v303h-410v-303q0 -37 -35 -37z" />
    <glyph glyph-name="uni100014.small" unicode="I&#x20dd;" horiz-adv-x="1825" 
d="M913 -52q-156 0 -299 61.5t-247 165t-165.5 247t-61.5 299.5q0 208 104 386t282 282t386 104t386.5 -104t282.5 -282t104 -386q0 -209 -104 -387t-281.5 -282t-386.5 -104zM913 18q191 0 352.5 94t255.5 256t94 353t-94 352.5t-256 255.5t-353 94t-352.5 -94
t-255.5 -255.5t-94 -352.5t94 -353t256 -256t353 -94zM912 367q-16 0 -25 10t-9 27v636q0 37 34 37q35 0 35 -37v-636q0 -17 -9.5 -27t-25.5 -10z" />
    <glyph glyph-name="uni100016.small" unicode="J&#x20dd;" horiz-adv-x="1825" 
d="M913 -52q-156 0 -299 61.5t-247 165t-165.5 247t-61.5 299.5q0 208 104 386t282 282t386 104t386.5 -104t282.5 -282t104 -386q0 -209 -104 -387t-281.5 -282t-386.5 -104zM913 18q191 0 352.5 94t255.5 256t94 353t-94 352.5t-256 255.5t-353 94t-352.5 -94
t-255.5 -255.5t-94 -352.5t94 -353t256 -256t353 -94zM883 364q-76 0 -131.5 39t-69.5 100q-3 15 -3 26q0 33 32 33q23 0 32 -26q9 -50 48 -80.5t94 -30.5q60 0 95 40t35 108v467q0 17 9.5 27t25.5 10q34 0 34 -37v-468q0 -97 -53 -152.5t-148 -55.5z" />
    <glyph glyph-name="uni100018.small" unicode="&#x212a;&#x20dd;" horiz-adv-x="1825" 
d="M913 -52q-156 0 -299 61.5t-247 165t-165.5 247t-61.5 299.5q0 208 104 386t282 282t386 104t386.5 -104t282.5 -282t104 -386q0 -209 -104 -387t-281.5 -282t-386.5 -104zM913 18q191 0 352.5 94t255.5 256t94 353t-94 352.5t-256 255.5t-353 94t-352.5 -94
t-255.5 -255.5t-94 -352.5t94 -353t256 -256t353 -94zM708 367q-16 0 -25.5 10t-9.5 27v636q0 37 35 37q34 0 34 -37v-327h4l346 350q14 14 31 14q13 0 22 -8.5t9 -20.5q0 -14 -11 -25l-248 -251l269 -343q12 -16 12 -28q0 -15 -9.5 -24t-24.5 -9q-18 0 -34 19l-263 338
l-103 -105v-216q0 -17 -9 -27t-25 -10z" />
    <glyph glyph-name="uni10001A.small" unicode="L&#x20dd;" horiz-adv-x="1825" 
d="M913 -52q-156 0 -299 61.5t-247 165t-165.5 247t-61.5 299.5q0 208 104 386t282 282t386 104t386.5 -104t282.5 -282t104 -386q0 -209 -104 -387t-281.5 -282t-386.5 -104zM913 18q191 0 352.5 94t255.5 256t94 353t-94 352.5t-256 255.5t-353 94t-352.5 -94
t-255.5 -255.5t-94 -352.5t94 -353t256 -256t353 -94zM754 373q-15 0 -24.5 10.5t-9.5 26.5v630q0 37 34 37t34 -37v-607h336q30 0 30 -30t-30 -30h-370z" />
    <glyph glyph-name="uni10001C.small" unicode="M&#x20dd;" horiz-adv-x="1825" 
d="M913 -52q-156 0 -299 61.5t-247 165t-165.5 247t-61.5 299.5q0 208 104 386t282 282t386 104t386.5 -104t282.5 -282t104 -386q0 -209 -104 -387t-281.5 -282t-386.5 -104zM913 18q191 0 352.5 94t255.5 256t94 353t-94 352.5t-256 255.5t-353 94t-352.5 -94
t-255.5 -255.5t-94 -352.5t94 -353t256 -256t353 -94zM614 365q-32 0 -32 35v632q0 20 13 32.5t33 12.5q36 0 50 -36l232 -585h4l232 585q14 36 50 36q20 0 33 -12.5t13 -32.5v-632q0 -35 -32 -35q-14 0 -23 9.5t-9 25.5v563h-4l-222 -559q-10 -27 -41 -27q-28 0 -40 27
l-221 559h-4v-563q0 -16 -9 -25.5t-23 -9.5z" />
    <glyph glyph-name="uni10001E.small" unicode="N&#x20dd;" horiz-adv-x="1825" 
d="M913 -52q-156 0 -299 61.5t-247 165t-165.5 247t-61.5 299.5q0 208 104 386t282 282t386 104t386.5 -104t282.5 -282t104 -386q0 -209 -104 -387t-281.5 -282t-386.5 -104zM913 18q191 0 352.5 94t255.5 256t94 353t-94 352.5t-256 255.5t-353 94t-352.5 -94
t-255.5 -255.5t-94 -352.5t94 -353t256 -256t353 -94zM676 367q-33 0 -33 34v631q0 45 42 45q25 0 43 -27l383 -574h4v567q0 34 33 34t33 -34v-634q0 -19 -11 -30.5t-30 -11.5q-26 0 -44 27l-384 572h-3v-565q0 -16 -9 -25t-24 -9z" />
    <glyph glyph-name="uni100020.small" unicode="O&#x20dd;" horiz-adv-x="1825" 
d="M913 -52q-156 0 -299 61.5t-247 165t-165.5 247t-61.5 299.5q0 208 104 386t282 282t386 104t386.5 -104t282.5 -282t104 -386q0 -209 -104 -387t-281.5 -282t-386.5 -104zM913 18q191 0 352.5 94t255.5 256t94 353t-94 352.5t-256 255.5t-353 94t-352.5 -94
t-255.5 -255.5t-94 -352.5t94 -353t256 -256t353 -94zM912 361q-142 0 -230.5 100t-88.5 261q0 162 88 262t231 100t231.5 -100t88.5 -262q0 -161 -88.5 -261t-231.5 -100zM912 420q112 0 181.5 83.5t69.5 218.5q0 136 -69.5 219.5t-181.5 83.5t-181 -83.5t-69 -219.5
q0 -135 69 -218.5t181 -83.5z" />
    <glyph glyph-name="uni100022.small" unicode="P&#x20dd;" horiz-adv-x="1825" 
d="M913 -52q-156 0 -299 61.5t-247 165t-165.5 247t-61.5 299.5q0 208 104 386t282 282t386 104t386.5 -104t282.5 -282t104 -386q0 -209 -104 -387t-281.5 -282t-386.5 -104zM913 18q191 0 352.5 94t255.5 256t94 353t-94 352.5t-256 255.5t-353 94t-352.5 -94
t-255.5 -255.5t-94 -352.5t94 -353t256 -256t353 -94zM744 367q-16 0 -25.5 10t-9.5 27v629q0 38 33 38h219q97 0 160.5 -62t63.5 -157q0 -97 -63 -158t-161 -61h-183v-229q0 -37 -34 -37zM778 691h179q70 0 115 45t45 116t-45 116t-115 45h-179v-322z" />
    <glyph glyph-name="uni100024.small" unicode="Q&#x20dd;" horiz-adv-x="1825" 
d="M913 -52q-156 0 -299 61.5t-247 165t-165.5 247t-61.5 299.5q0 208 104 386t282 282t386 104t386.5 -104t282.5 -282t104 -386q0 -209 -104 -387t-281.5 -282t-386.5 -104zM913 18q191 0 352.5 94t255.5 256t94 353t-94 352.5t-256 255.5t-353 94t-352.5 -94
t-255.5 -255.5t-94 -352.5t94 -353t256 -256t353 -94zM912 361q-144 0 -232 100.5t-88 262.5q0 160 88.5 260t231.5 100t231.5 -100t88.5 -260q0 -102 -36.5 -182t-102.5 -126l60 -82q11 -15 11 -25q0 -12 -7.5 -19.5t-19.5 -7.5q-17 0 -28 16l-65 90q-58 -27 -132 -27z
M912 420q58 0 96 17l-64 89q-10 13 -10 23q0 12 8 19.5t20 7.5q15 0 25 -14l69 -95q108 80 108 257q0 134 -69.5 217.5t-182.5 83.5q-112 0 -181.5 -83.5t-69.5 -217.5q0 -137 69 -220.5t182 -83.5z" />
    <glyph glyph-name="uni100026.small" unicode="R&#x20dd;" horiz-adv-x="1825" 
d="M913 -52q-156 0 -299 61.5t-247 165t-165.5 247t-61.5 299.5q0 208 104 386t282 282t386 104t386.5 -104t282.5 -282t104 -386q0 -209 -104 -387t-281.5 -282t-386.5 -104zM913 18q191 0 352.5 94t255.5 256t94 353t-94 352.5t-256 255.5t-353 94t-352.5 -94
t-255.5 -255.5t-94 -352.5t94 -353t256 -256t353 -94zM716 367q-16 0 -25.5 10t-9.5 27v629q0 38 33 38h218q101 0 163 -58t62 -152q0 -75 -43 -129.5t-116 -70.5l141 -236q10 -17 10 -29q0 -13 -8.5 -21t-21.5 -8q-21 0 -36 24l-153 261h-180v-248q0 -37 -34 -37zM750 709
h177q73 0 117.5 41t44.5 110q0 70 -44 111.5t-117 41.5h-178v-304z" />
    <glyph glyph-name="uni100028.small" unicode="S&#x20dd;" horiz-adv-x="1825" 
d="M913 -52q-156 0 -299 61.5t-247 165t-165.5 247t-61.5 299.5q0 208 104 386t282 282t386 104t386.5 -104t282.5 -282t104 -386q0 -209 -104 -387t-281.5 -282t-386.5 -104zM913 18q191 0 352.5 94t255.5 256t94 353t-94 352.5t-256 255.5t-353 94t-352.5 -94
t-255.5 -255.5t-94 -352.5t94 -353t256 -256t353 -94zM907 361q-95 0 -163 43t-86 109q-4 15 -4 29q0 33 32 33q24 0 34 -29q13 -57 66 -91t128 -34q77 0 132.5 40t55.5 98q0 48 -34 76t-117 49l-110 30q-88 23 -129.5 64t-41.5 108q0 87 69 142t178 55q91 0 155.5 -40
t81.5 -106q4 -15 4 -29q0 -32 -32 -32q-25 0 -34 28q-13 56 -60.5 88t-117.5 32q-72 0 -122.5 -40t-50.5 -98q0 -42 30 -68.5t99 -45.5l106 -29q104 -28 150 -69t46 -109q0 -93 -72.5 -148.5t-192.5 -55.5z" />
    <glyph glyph-name="uni10002A.small" unicode="T&#x20dd;" horiz-adv-x="1825" 
d="M913 -52q-156 0 -299 61.5t-247 165t-165.5 247t-61.5 299.5q0 208 104 386t282 282t386 104t386.5 -104t282.5 -282t104 -386q0 -209 -104 -387t-281.5 -282t-386.5 -104zM913 18q191 0 352.5 94t255.5 256t94 353t-94 352.5t-256 255.5t-353 94t-352.5 -94
t-255.5 -255.5t-94 -352.5t94 -353t256 -256t353 -94zM908 366q-16 0 -25 10t-9 27v607h-210q-13 0 -21.5 8.5t-8.5 21.5q0 14 8.5 22t21.5 8h496q13 0 21.5 -8t8.5 -22q0 -13 -8.5 -21.5t-21.5 -8.5h-217v-607q0 -17 -9.5 -27t-25.5 -10z" />
    <glyph glyph-name="uni10002C.small" unicode="U&#x20dd;" horiz-adv-x="1825" 
d="M913 -52q-156 0 -299 61.5t-247 165t-165.5 247t-61.5 299.5q0 208 104 386t282 282t386 104t386.5 -104t282.5 -282t104 -386q0 -209 -104 -387t-281.5 -282t-386.5 -104zM913 18q191 0 352.5 94t255.5 256t94 353t-94 352.5t-256 255.5t-353 94t-352.5 -94
t-255.5 -255.5t-94 -352.5t94 -353t256 -256t353 -94zM912 361q-122 0 -198.5 68.5t-76.5 183.5v427q0 37 34 37t34 -37v-424q0 -87 58.5 -141t148.5 -54q91 0 149 54t58 141v424q0 37 34 37q35 0 35 -37v-427q0 -115 -77 -183.5t-199 -68.5z" />
    <glyph glyph-name="uni10002E.small" unicode="V&#x20dd;" horiz-adv-x="1825" 
d="M913 -52q-156 0 -299 61.5t-247 165t-165.5 247t-61.5 299.5q0 208 104 386t282 282t386 104t386.5 -104t282.5 -282t104 -386q0 -209 -104 -387t-281.5 -282t-386.5 -104zM913 18q191 0 352.5 94t255.5 256t94 353t-94 352.5t-256 255.5t-353 94t-352.5 -94
t-255.5 -255.5t-94 -352.5t94 -353t256 -256t353 -94zM913 364q-39 0 -55 40l-237 621q-4 14 -4 20q0 14 9.5 23t25.5 9q26 0 36 -29l222 -601h5l221 601q11 29 37 29q15 0 24.5 -8.5t9.5 -23.5q0 -9 -4 -20l-236 -620q-16 -41 -54 -41z" />
    <glyph glyph-name="uni100030.small" unicode="W&#x20dd;" horiz-adv-x="1825" 
d="M913 -52q-156 0 -299 61.5t-247 165t-165.5 247t-61.5 299.5q0 208 104 386t282 282t386 104t386.5 -104t282.5 -282t104 -386q0 -209 -104 -387t-281.5 -282t-386.5 -104zM913 18q191 0 352.5 94t255.5 256t94 353t-94 352.5t-256 255.5t-353 94t-352.5 -94
t-255.5 -255.5t-94 -352.5t94 -353t256 -256t353 -94zM711 364q-39 0 -49 40l-159 628q-2 12 -2 13q0 15 9.5 23.5t24.5 8.5q27 0 34 -32l142 -582h5l156 579q7 31 40 31t40 -31l157 -579h4l142 582q8 32 34 32q34 0 34 -32q0 -7 -2 -13l-159 -628q-10 -40 -49 -40
q-40 0 -49 39l-150 565h-4l-150 -565q-9 -39 -49 -39z" />
    <glyph glyph-name="uni100032.small" unicode="X&#x20dd;" horiz-adv-x="1825" 
d="M913 -52q-156 0 -299 61.5t-247 165t-165.5 247t-61.5 299.5q0 208 104 386t282 282t386 104t386.5 -104t282.5 -282t104 -386q0 -209 -104 -387t-281.5 -282t-386.5 -104zM913 18q191 0 352.5 94t255.5 256t94 353t-94 352.5t-256 255.5t-353 94t-352.5 -94
t-255.5 -255.5t-94 -352.5t94 -353t256 -256t353 -94zM687 367q-14 0 -23 8.5t-9 21.5q0 11 7 22l209 305l-203 297q-9 14 -9 24q0 14 9.5 23t23.5 9q21 0 33 -19l188 -283h4l188 283q12 19 31 19q14 0 23.5 -8.5t9.5 -21.5q0 -9 -8 -22l-209 -303l206 -300q8 -13 8 -23
q0 -14 -9 -23t-23 -9q-20 0 -33 20l-188 282h-4l-190 -282q-13 -20 -32 -20z" />
    <glyph glyph-name="uni100034.small" unicode="Y&#x20dd;" horiz-adv-x="1825" 
d="M913 -52q-156 0 -299 61.5t-247 165t-165.5 247t-61.5 299.5q0 208 104 386t282 282t386 104t386.5 -104t282.5 -282t104 -386q0 -209 -104 -387t-281.5 -282t-386.5 -104zM913 18q191 0 352.5 94t255.5 256t94 353t-94 352.5t-256 255.5t-353 94t-352.5 -94
t-255.5 -255.5t-94 -352.5t94 -353t256 -256t353 -94zM912 367q-16 0 -25 10t-9 27v262l-241 360q-6 9 -6 21q0 13 9 21.5t23 8.5q20 0 32 -20l216 -321h4l215 321q12 20 32 20q14 0 23 -8.5t9 -22.5q0 -12 -7 -20l-240 -360v-262q0 -37 -35 -37z" />
    <glyph glyph-name="uni100036.small" unicode="Z&#x20dd;" horiz-adv-x="1825" 
d="M913 -52q-156 0 -299 61.5t-247 165t-165.5 247t-61.5 299.5q0 208 104 386t282 282t386 104t386.5 -104t282.5 -282t104 -386q0 -209 -104 -387t-281.5 -282t-386.5 -104zM913 18q191 0 352.5 94t255.5 256t94 353t-94 352.5t-256 255.5t-353 94t-352.5 -94
t-255.5 -255.5t-94 -352.5t94 -353t256 -256t353 -94zM690 373q-18 0 -29 10.5t-11 26.5q0 17 15 38l408 558v5h-391q-13 0 -21.5 8.5t-8.5 21.5t8.5 21.5t21.5 8.5h435q17 0 28.5 -11t11.5 -27q0 -18 -14 -37l-406 -558v-5h409q13 0 21.5 -8.5t8.5 -21.5t-8.5 -21.5
t-21.5 -8.5h-456z" />
    <glyph glyph-name="uni100038.small" unicode="&#x30;&#x20dd;" horiz-adv-x="1825" 
d="M913 -52q-156 0 -299 61.5t-247 165t-165.5 247t-61.5 299.5q0 208 104 386t282 282t386 104t386.5 -104t282.5 -282t104 -386q0 -209 -104 -387t-281.5 -282t-386.5 -104zM913 18q191 0 352.5 94t255.5 256t94 353t-94 352.5t-256 255.5t-353 94t-352.5 -94
t-255.5 -255.5t-94 -352.5t94 -353t256 -256t353 -94zM912 361q-113 0 -182.5 99.5t-69.5 261.5t69.5 262t182.5 100t183 -100t70 -262t-70 -261.5t-183 -99.5zM912 420q84 0 135 83t51 219t-51 219t-135 83q-83 0 -134 -83t-51 -219t51 -219t134 -83z" />
    <glyph glyph-name="uni100039.small" unicode="&#x30;&#x20dd;&#x25cf;" horiz-adv-x="1825" 
d="M913 -52q-156 0 -299 61.5t-247 165t-165.5 247t-61.5 299.5q0 208 104 386t282 282t386 104t386.5 -104t282.5 -282t104 -386q0 -209 -104 -387t-281.5 -282t-386.5 -104zM912 344q119 0 192 104.5t73 274.5q0 171 -73 275.5t-192 104.5t-192 -104.5t-73 -275.5
q0 -170 73 -274.5t192 -104.5zM912 406q-88 0 -141 87t-53 230t53 230.5t141 87.5t141.5 -87t53.5 -231q0 -143 -53.5 -230t-141.5 -87z" />
    <glyph glyph-name="uni1000F2.small" unicode="&#x2713;&#x20de;" horiz-adv-x="1795" 
d="M416 23q-216 0 -216 215v964q0 106 55 161t161 55h963q106 0 161 -55t55 -161v-964q0 -105 -55 -160t-161 -55h-963zM418 91h959q72 0 111 38.5t39 112.5v957q0 74 -39 112.5t-111 38.5h-959q-74 0 -112 -38.5t-38 -112.5v-957q0 -151 150 -151zM795 331q-20 0 -37 20
l-250 293q-11 14 -11 30q0 15 10.5 25t24.5 10q20 0 33 -17l228 -269l404 630q13 21 32 21q14 0 25 -10t11 -25q0 -13 -9 -27l-426 -660q-14 -21 -35 -21z" />
    <glyph glyph-name="uni1000F0.small" unicode="&#x2717;&#x20de;" horiz-adv-x="1795" 
d="M416 23q-216 0 -216 215v964q0 106 55 161t161 55h963q106 0 161 -55t55 -161v-964q0 -105 -55 -160t-161 -55h-963zM418 91h959q72 0 111 38.5t39 112.5v957q0 74 -39 112.5t-111 38.5h-959q-74 0 -112 -38.5t-38 -112.5v-957q0 -151 150 -151zM618 406
q-15 0 -25.5 10.5t-10.5 24.5q0 15 12 26l253 254l-253 254q-12 11 -12 26q0 14 10.5 24t25.5 10t27 -12l252 -252l253 252q13 13 27 13q15 0 25.5 -10t10.5 -25t-12 -26l-253 -254l253 -253q12 -12 12 -27q0 -14 -10.5 -24.5t-25.5 -10.5t-28 13l-252 252l-252 -252
q-12 -13 -27 -13z" />
    <glyph glyph-name="uni10003B.small" unicode="&#x31;&#x20dd;&#x25cf;" horiz-adv-x="1825" 
d="M913 -52q-156 0 -299 61.5t-247 165t-165.5 247t-61.5 299.5q0 208 104 386t282 282t386 104t386.5 -104t282.5 -282t104 -386q0 -209 -104 -387t-281.5 -282t-386.5 -104zM934 350q17 0 26.5 10.5t9.5 28.5v671q0 19 -10.5 30t-28.5 11q-20 0 -51 -19l-168 -110
q-16 -11 -16 -28q0 -13 8.5 -21t20.5 -8q10 0 20 6l149 96h4v-628q0 -17 10 -28t26 -11z" />
    <glyph glyph-name="uni10003D.small" unicode="&#x32;&#x20dd;&#x25cf;" horiz-adv-x="1825" 
d="M913 -52q-156 0 -299 61.5t-247 165t-165.5 247t-61.5 299.5q0 208 104 386t282 282t386 104t386.5 -104t282.5 -282t104 -386q0 -209 -104 -387t-281.5 -282t-386.5 -104zM709 356h418q14 0 23 9t9 23q0 15 -9 23.5t-23 8.5h-352v5l232 255q64 69 92 120t28 106
q0 90 -61.5 143.5t-165.5 53.5q-86 0 -151.5 -46.5t-79.5 -117.5q-3 -15 -3 -26q0 -15 9 -24.5t24 -9.5q25 0 33 28q9 61 55 97.5t115 36.5q71 0 113.5 -37.5t42.5 -99.5q0 -76 -93 -175l-279 -308q-13 -16 -13 -30q0 -16 10 -25.5t26 -9.5z" />
    <glyph glyph-name="uni10003F.small" unicode="&#x33;&#x20dd;&#x25cf;" horiz-adv-x="1825" 
d="M913 -52q-156 0 -299 61.5t-247 165t-165.5 247t-61.5 299.5q0 208 104 386t282 282t386 104t386.5 -104t282.5 -282t104 -386q0 -209 -104 -387t-281.5 -282t-386.5 -104zM907 344q112 0 184 60t72 153q0 70 -49 121t-122 59v5q62 11 103.5 61t41.5 114
q0 81 -64.5 133.5t-164.5 52.5q-88 0 -149 -41.5t-78 -107.5q-3 -14 -3 -26q0 -15 9.5 -24t23.5 -9q28 0 34 28q9 54 53 86.5t109 32.5q71 0 115.5 -37t44.5 -96q0 -60 -45.5 -101t-111.5 -41h-65q-13 0 -22 -8.5t-9 -21.5q0 -14 8.5 -22.5t22.5 -8.5h70q77 0 127.5 -42
t50.5 -106q0 -68 -52 -110.5t-134 -42.5q-66 1 -115 33.5t-63 85.5q-7 28 -34 28q-14 0 -23.5 -9t-9.5 -24q0 -10 3 -25q19 -67 85.5 -108.5t156.5 -41.5z" />
    <glyph glyph-name="uni100041.small" unicode="&#x34;&#x20dd;&#x25cf;" horiz-adv-x="1825" 
d="M913 -52q-156 0 -299 61.5t-247 165t-165.5 247t-61.5 299.5q0 208 104 386t282 282t386 104t386.5 -104t282.5 -282t104 -386q0 -209 -104 -387t-281.5 -282t-386.5 -104zM1000 350q16 0 25 10t9 27v138h90q14 0 23 9t9 23t-9 23t-23 9h-90v463q0 23 -15 37t-41 14
q-46 0 -73 -41q-219 -324 -294 -447q-13 -21 -13 -40q0 -23 14 -36.5t39 -13.5h315v-138q0 -16 9.5 -26.5t24.5 -10.5zM966 589h-295v4q68 115 289 441h6v-445z" />
    <glyph glyph-name="uni100043.small" unicode="&#x35;&#x20dd;&#x25cf;" horiz-adv-x="1825" 
d="M913 -52q-156 0 -299 61.5t-247 165t-165.5 247t-61.5 299.5q0 208 104 386t282 282t386 104t386.5 -104t282.5 -282t104 -386q0 -209 -104 -387t-281.5 -282t-386.5 -104zM902 344q117 0 188.5 68.5t71.5 180.5q0 104 -67 170.5t-172 66.5q-52 0 -99.5 -22t-75.5 -59h-5
l24 281h339q14 0 22 8t8 22q0 13 -8.5 22t-21.5 9h-351q-46 0 -51 -47l-26 -321q-2 -20 9.5 -32.5t30.5 -12.5q21 0 43 19q38 40 73.5 57t80.5 17q79 0 128 -50t49 -129q0 -81 -52.5 -133.5t-131.5 -52.5q-64 0 -113 31.5t-66 80.5q-9 26 -33 26q-14 0 -23 -8.5t-9 -22.5
q0 -10 5 -22q19 -66 82 -106.5t151 -40.5z" />
    <glyph glyph-name="uni100045.small" unicode="&#x36;&#x20dd;&#x25cf;" horiz-adv-x="1825" 
d="M913 -52q-156 0 -299 61.5t-247 165t-165.5 247t-61.5 299.5q0 208 104 386t282 282t386 104t386.5 -104t282.5 -282t104 -386q0 -209 -104 -387t-281.5 -282t-386.5 -104zM904 344q116 0 187.5 68.5t71.5 181.5q0 103 -68.5 168.5t-169.5 65.5q-79 0 -133.5 -35
t-83.5 -95h-4v10q0 156 57.5 244.5t156.5 88.5q50 0 90.5 -22.5t59.5 -59.5q19 -26 39 -26q12 0 20 8t8 21q0 12 -4 20q-14 45 -73 83t-138 38q-133 0 -208 -104t-75 -297q0 -152 45 -234q33 -60 91.5 -92t130.5 -32zM903 404q-81 0 -133.5 52.5t-52.5 133.5q0 78 53 129
t135 51t134 -50.5t52 -130.5q0 -84 -51.5 -134.5t-136.5 -50.5z" />
    <glyph glyph-name="uni100047.small" unicode="&#x37;&#x20dd;&#x25cf;" horiz-adv-x="1825" 
d="M913 -52q-156 0 -299 61.5t-247 165t-165.5 247t-61.5 299.5q0 208 104 386t282 282t386 104t386.5 -104t282.5 -282t104 -386q0 -209 -104 -387t-281.5 -282t-386.5 -104zM789 348q24 0 36 26l322 631q11 22 11 38q0 21 -15.5 34t-40.5 13h-405q-13 0 -21.5 -8.5
t-8.5 -22.5q0 -13 8.5 -21.5t21.5 -8.5h383v-5l-321 -618q-6 -11 -6 -24q0 -15 10 -24.5t26 -9.5z" />
    <glyph glyph-name="uni100049.small" unicode="&#x38;&#x20dd;&#x25cf;" horiz-adv-x="1825" 
d="M913 -52q-156 0 -299 61.5t-247 165t-165.5 247t-61.5 299.5q0 208 104 386t282 282t386 104t386.5 -104t282.5 -282t104 -386q0 -209 -104 -387t-281.5 -282t-386.5 -104zM912 344q117 0 192 60.5t75 154.5q0 66 -45 118t-114 66v4q58 17 94 61.5t36 101.5q0 85 -67 139
t-171 54t-170.5 -54t-66.5 -139q0 -57 35.5 -101.5t94.5 -61.5v-4q-70 -14 -114.5 -66t-44.5 -118q0 -95 74 -155t192 -60zM912 770q-73 0 -120 38.5t-47 99.5q0 60 47 99t120 39q74 0 121 -39t47 -99q0 -61 -47 -99.5t-121 -38.5zM913 401q-86 0 -142 45t-56 115
q0 67 56 110.5t142 43.5t141.5 -43.5t55.5 -110.5q0 -70 -55.5 -115t-141.5 -45z" />
    <glyph glyph-name="uni10004B.small" unicode="&#x39;&#x20dd;&#x25cf;" horiz-adv-x="1825" 
d="M913 -52q-156 0 -299 61.5t-247 165t-165.5 247t-61.5 299.5q0 208 104 386t282 282t386 104t386.5 -104t282.5 -282t104 -386q0 -209 -104 -387t-281.5 -282t-386.5 -104zM894 345q136 0 209 105t73 313q0 166 -71.5 253t-196.5 87q-114 0 -186 -69t-72 -179
q0 -104 68.5 -171.5t168.5 -67.5q80 0 136 35.5t82 98.5h4q0 -165 -57 -254t-158 -89q-51 0 -92.5 23t-60.5 63q-14 25 -36 25q-13 0 -22 -8.5t-9 -21.5q0 -1 3 -19q12 -43 74 -83.5t143 -40.5zM905 674q-82 0 -134.5 52.5t-52.5 132.5q0 81 53 132.5t136 51.5q79 0 133 -53
t54 -133q0 -78 -54 -130.5t-135 -52.5z" />
    <glyph glyph-name="uni10009D.small" unicode="E&#x20de;&#x25a0;" horiz-adv-x="1795" 
d="M416 23q-216 0 -216 215v964q0 106 55 161t161 55h963q106 0 161 -55t55 -161v-964q0 -105 -55 -160t-161 -55h-963zM699 357h399q15 0 23.5 9t8.5 23t-8.5 23t-23.5 9h-360v280h340q15 0 23.5 8.5t8.5 21.5q0 31 -32 31h-340v265h360q15 0 23.5 9t8.5 22q0 14 -8.5 23
t-23.5 9h-399q-16 0 -25 -11t-9 -29v-652q0 -19 9 -30t25 -11z" />
    <glyph glyph-name="uni100094.small" unicode="A&#x20de;" horiz-adv-x="1795" 
d="M416 23q-216 0 -216 215v964q0 106 55 161t161 55h963q106 0 161 -55t55 -161v-964q0 -105 -55 -160t-161 -55h-963zM418 91h959q72 0 111 38.5t39 112.5v957q0 74 -39 112.5t-111 38.5h-959q-74 0 -112 -38.5t-38 -112.5v-957q0 -151 150 -151zM641 366q-16 0 -25 8
t-9 22q0 6 5 21l238 631q11 33 47 33q34 0 47 -33l238 -631q5 -15 5 -21q0 -13 -9 -21.5t-23 -8.5q-25 0 -36 28l-72 198h-300l-73 -198q-9 -28 -33 -28zM767 649h260l-128 345h-4z" />
    <glyph glyph-name="uni100096.small" unicode="B&#x20de;" horiz-adv-x="1795" 
d="M416 23q-216 0 -216 215v964q0 106 55 161t161 55h963q106 0 161 -55t55 -161v-964q0 -105 -55 -160t-161 -55h-963zM418 91h959q72 0 111 38.5t39 112.5v957q0 74 -39 112.5t-111 38.5h-959q-74 0 -112 -38.5t-38 -112.5v-957q0 -151 150 -151zM695 371
q-16 0 -25.5 10.5t-9.5 27.5v629q0 38 35 38h228q92 0 150 -48t58 -125q0 -59 -32.5 -103t-84.5 -56v-3q73 -10 116 -57t43 -118q0 -91 -66.5 -143t-180.5 -52h-231zM727 761h168q75 0 121.5 36.5t46.5 93.5q0 61 -40 94.5t-112 33.5h-184v-258zM727 428h169q206 0 206 138
q0 66 -44.5 103t-123.5 37h-207v-278z" />
    <glyph glyph-name="uni100098.small" unicode="C&#x20de;" horiz-adv-x="1795" 
d="M416 23q-216 0 -216 215v964q0 106 55 161t161 55h963q106 0 161 -55t55 -161v-964q0 -105 -55 -160t-161 -55h-963zM418 91h959q72 0 111 38.5t39 112.5v957q0 74 -39 112.5t-111 38.5h-959q-74 0 -112 -38.5t-38 -112.5v-957q0 -151 150 -151zM903 362
q-140 0 -225.5 99.5t-85.5 262.5q0 162 85.5 261.5t225.5 99.5q99 0 175.5 -52t94.5 -131q4 -19 4 -26q0 -33 -31 -33q-24 0 -31 27q-14 70 -71.5 112.5t-139.5 42.5q-108 0 -175.5 -84t-67.5 -217q0 -134 67.5 -217.5t175.5 -83.5q82 0 139.5 42t71.5 113q7 26 31 26
q31 0 31 -33q0 -6 -4 -25q-18 -81 -93.5 -132.5t-176.5 -51.5z" />
    <glyph glyph-name="uni10009A.small" unicode="D&#x20de;" horiz-adv-x="1795" 
d="M416 23q-216 0 -216 215v964q0 106 55 161t161 55h963q106 0 161 -55t55 -161v-964q0 -105 -55 -160t-161 -55h-963zM418 91h959q72 0 111 38.5t39 112.5v957q0 74 -39 112.5t-111 38.5h-959q-74 0 -112 -38.5t-38 -112.5v-957q0 -151 150 -151zM679 375q-32 0 -32 38
v621q0 39 32 39h206q152 0 239 -92.5t87 -254.5q0 -168 -86 -259.5t-240 -91.5h-206zM714 433h163q124 0 193 75t69 217q0 136 -70 212.5t-192 76.5h-163v-581z" />
    <glyph glyph-name="uni10009C.small" unicode="E&#x20de;" horiz-adv-x="1795" 
d="M416 23q-216 0 -216 215v964q0 106 55 161t161 55h963q106 0 161 -55t55 -161v-964q0 -105 -55 -160t-161 -55h-963zM418 91h959q72 0 111 38.5t39 112.5v957q0 74 -39 112.5t-111 38.5h-959q-74 0 -112 -38.5t-38 -112.5v-957q0 -151 150 -151zM709 375q-32 0 -32 38
v621q0 39 32 39h379q14 0 22 -8.5t8 -22.5q0 -13 -8 -21.5t-22 -8.5h-343v-251h324q31 0 31 -30q0 -29 -31 -29h-324v-267h343q14 0 22 -8.5t8 -21.5q0 -30 -30 -30h-379z" />
    <glyph glyph-name="uni10009E.small" unicode="F&#x20de;" horiz-adv-x="1795" 
d="M416 23q-216 0 -216 215v964q0 106 55 161t161 55h963q106 0 161 -55t55 -161v-964q0 -105 -55 -160t-161 -55h-963zM418 91h959q72 0 111 38.5t39 112.5v957q0 74 -39 112.5t-111 38.5h-959q-74 0 -112 -38.5t-38 -112.5v-957q0 -151 150 -151zM724 368
q-15 0 -24.5 10.5t-9.5 26.5v629q0 39 32 39h377q14 0 22 -8.5t8 -22.5q0 -13 -8 -21.5t-22 -8.5h-341v-260h312q30 0 30 -29t-30 -29h-312v-289q0 -37 -34 -37z" />
    <glyph glyph-name="uni1000A0.small" unicode="G&#x20de;" horiz-adv-x="1795" 
d="M416 23q-216 0 -216 215v964q0 106 55 161t161 55h963q106 0 161 -55t55 -161v-964q0 -105 -55 -160t-161 -55h-963zM418 91h959q72 0 111 38.5t39 112.5v957q0 74 -39 112.5t-111 38.5h-959q-74 0 -112 -38.5t-38 -112.5v-957q0 -151 150 -151zM904 362
q-140 0 -226 99.5t-86 262.5q0 162 85.5 261.5t225.5 99.5q110 0 181 -55.5t89 -127.5q4 -20 4 -26q0 -33 -31 -33q-22 0 -31 27q-14 71 -71.5 113t-139.5 42q-108 0 -175 -83.5t-67 -217.5t67.5 -217.5t174.5 -83.5q99 0 153.5 56t54.5 154v41h-195q-12 0 -20 8t-8 20
t7.5 20t20.5 8h230q16 0 25 -9.5t9 -26.5v-55q0 -126 -75 -201.5t-202 -75.5z" />
    <glyph glyph-name="uni1000A2.small" unicode="H&#x20de;" horiz-adv-x="1795" 
d="M416 23q-216 0 -216 215v964q0 106 55 161t161 55h963q106 0 161 -55t55 -161v-964q0 -105 -55 -160t-161 -55h-963zM418 91h959q72 0 111 38.5t39 112.5v957q0 74 -39 112.5t-111 38.5h-959q-74 0 -112 -38.5t-38 -112.5v-957q0 -151 150 -151zM657 368q-16 0 -25 10
t-9 27v637q0 37 34 37q35 0 35 -37v-275h410v275q0 17 9.5 27t24.5 10q35 0 35 -37v-637q0 -17 -9.5 -27t-25.5 -10q-15 0 -24.5 10.5t-9.5 26.5v303h-410v-303q0 -17 -9.5 -27t-25.5 -10z" />
    <glyph glyph-name="uni1000A4.small" unicode="I&#x20de;" horiz-adv-x="1795" 
d="M416 23q-216 0 -216 215v964q0 106 55 161t161 55h963q106 0 161 -55t55 -161v-964q0 -105 -55 -160t-161 -55h-963zM418 91h959q72 0 111 38.5t39 112.5v957q0 74 -39 112.5t-111 38.5h-959q-74 0 -112 -38.5t-38 -112.5v-957q0 -151 150 -151zM897 368
q-15 0 -24.5 10.5t-9.5 26.5v637q0 17 9 27t25 10q35 0 35 -37v-637q0 -17 -9.5 -27t-25.5 -10z" />
    <glyph glyph-name="uni1000A6.small" unicode="J&#x20de;" horiz-adv-x="1795" 
d="M416 23q-216 0 -216 215v964q0 106 55 161t161 55h963q106 0 161 -55t55 -161v-964q0 -105 -55 -160t-161 -55h-963zM418 91h959q72 0 111 38.5t39 112.5v957q0 74 -39 112.5t-111 38.5h-959q-74 0 -112 -38.5t-38 -112.5v-957q0 -151 150 -151zM868 366q-76 0 -131.5 39
t-69.5 100q-3 13 -3 25q0 34 32 34q23 0 32 -26q9 -50 48 -80.5t94 -30.5q60 0 95 39.5t35 107.5v468q0 17 9.5 27t25.5 10q34 0 34 -37v-468q0 -97 -53 -152.5t-148 -55.5z" />
    <glyph glyph-name="uni1000A8.small" unicode="&#x212a;&#x20de;" horiz-adv-x="1795" 
d="M416 23q-216 0 -216 215v964q0 106 55 161t161 55h963q106 0 161 -55t55 -161v-964q0 -105 -55 -160t-161 -55h-963zM418 91h959q72 0 111 38.5t39 112.5v957q0 74 -39 112.5t-111 38.5h-959q-74 0 -112 -38.5t-38 -112.5v-957q0 -151 150 -151zM693 368q-16 0 -25.5 10
t-9.5 27v637q0 17 9.5 27t25.5 10q34 0 34 -37v-328h4l346 350q15 15 31 15q13 0 22 -8.5t9 -21.5q0 -14 -11 -25l-248 -251l269 -342q12 -18 12 -29q0 -14 -10 -23.5t-24 -9.5q-18 0 -34 20l-263 337l-103 -104v-217q0 -17 -9 -27t-25 -10z" />
    <glyph glyph-name="uni1000AA.small" unicode="L&#x20de;" horiz-adv-x="1795" 
d="M416 23q-216 0 -216 215v964q0 106 55 161t161 55h963q106 0 161 -55t55 -161v-964q0 -105 -55 -160t-161 -55h-963zM418 91h959q72 0 111 38.5t39 112.5v957q0 74 -39 112.5t-111 38.5h-959q-74 0 -112 -38.5t-38 -112.5v-957q0 -151 150 -151zM739 375q-16 0 -25 10
t-9 27v630q0 37 34 37t34 -37v-607h336q13 0 21.5 -8.5t8.5 -21.5q0 -30 -30 -30h-370z" />
    <glyph glyph-name="uni1000AC.small" unicode="M&#x20de;" horiz-adv-x="1795" 
d="M416 23q-216 0 -216 215v964q0 106 55 161t161 55h963q106 0 161 -55t55 -161v-964q0 -105 -55 -160t-161 -55h-963zM418 91h959q72 0 111 38.5t39 112.5v957q0 74 -39 112.5t-111 38.5h-959q-74 0 -112 -38.5t-38 -112.5v-957q0 -151 150 -151zM599 367q-32 0 -32 34
v632q0 21 13 33.5t33 12.5q36 0 50 -37l232 -584h4l232 584q14 37 50 37q20 0 33 -12.5t13 -33.5v-632q0 -34 -32 -34q-14 0 -23 9t-9 25v564h-4l-222 -559q-10 -28 -41 -28q-28 0 -40 28l-221 559h-4v-564q0 -16 -9 -25t-23 -9z" />
    <glyph glyph-name="uni1000AE.small" unicode="N&#x20de;" horiz-adv-x="1795" 
d="M416 23q-216 0 -216 215v964q0 106 55 161t161 55h963q106 0 161 -55t55 -161v-964q0 -105 -55 -160t-161 -55h-963zM418 91h959q72 0 111 38.5t39 112.5v957q0 74 -39 112.5t-111 38.5h-959q-74 0 -112 -38.5t-38 -112.5v-957q0 -151 150 -151zM661 368q-33 0 -33 35
v630q0 46 42 46q25 0 43 -27l383 -575h4v567q0 35 33 35t33 -35v-634q0 -19 -11 -30.5t-30 -11.5q-25 0 -44 28l-384 572h-3v-565q0 -35 -33 -35z" />
    <glyph glyph-name="uni1000B0.small" unicode="O&#x20de;" horiz-adv-x="1795" 
d="M416 23q-216 0 -216 215v964q0 106 55 161t161 55h963q106 0 161 -55t55 -161v-964q0 -105 -55 -160t-161 -55h-963zM418 91h959q72 0 111 38.5t39 112.5v957q0 74 -39 112.5t-111 38.5h-959q-74 0 -112 -38.5t-38 -112.5v-957q0 -151 150 -151zM897 362q-143 0 -231 100
t-88 262q0 161 88.5 261t230.5 100q143 0 231.5 -100t88.5 -261q0 -162 -88.5 -262t-231.5 -100zM897 421q112 0 181.5 83.5t69.5 219.5q0 135 -69.5 218.5t-181.5 83.5t-181 -83.5t-69 -218.5q0 -136 69 -219.5t181 -83.5z" />
    <glyph glyph-name="uni1000B2.small" unicode="P&#x20de;" horiz-adv-x="1795" 
d="M416 23q-216 0 -216 215v964q0 106 55 161t161 55h963q106 0 161 -55t55 -161v-964q0 -105 -55 -160t-161 -55h-963zM418 91h959q72 0 111 38.5t39 112.5v957q0 74 -39 112.5t-111 38.5h-959q-74 0 -112 -38.5t-38 -112.5v-957q0 -151 150 -151zM729 368
q-16 0 -25.5 10.5t-9.5 26.5v630q0 17 9 27.5t24 10.5h219q98 0 161 -62t63 -158t-63 -157.5t-161 -61.5h-183v-229q0 -37 -34 -37zM763 692h179q70 0 115 45.5t45 115.5q0 71 -45 116.5t-115 45.5h-179v-323z" />
    <glyph glyph-name="uni1000B4.small" unicode="Q&#x20de;" horiz-adv-x="1795" 
d="M416 23q-216 0 -216 215v964q0 106 55 161t161 55h963q106 0 161 -55t55 -161v-964q0 -105 -55 -160t-161 -55h-963zM418 91h959q72 0 111 38.5t39 112.5v957q0 74 -39 112.5t-111 38.5h-959q-74 0 -112 -38.5t-38 -112.5v-957q0 -151 150 -151zM897 362
q-144 0 -232 100.5t-88 262.5q0 160 88 260t232 100t232 -100t88 -260q0 -102 -36.5 -181.5t-102.5 -125.5l60 -83q11 -15 11 -25q0 -11 -7.5 -19t-19.5 -8q-16 0 -28 16l-65 90q-59 -27 -132 -27zM897 421q54 0 96 17l-64 89q-10 14 -10 24q0 11 8.5 18.5t19.5 7.5
q15 0 25 -14l69 -94q108 80 108 256q0 135 -69.5 218t-182.5 83t-182 -83t-69 -218q0 -137 69 -220.5t182 -83.5z" />
    <glyph glyph-name="uni1000B6.small" unicode="R&#x20de;" horiz-adv-x="1795" 
d="M416 23q-216 0 -216 215v964q0 106 55 161t161 55h963q106 0 161 -55t55 -161v-964q0 -105 -55 -160t-161 -55h-963zM418 91h959q72 0 111 38.5t39 112.5v957q0 74 -39 112.5t-111 38.5h-959q-74 0 -112 -38.5t-38 -112.5v-957q0 -151 150 -151zM701 368
q-16 0 -25.5 10.5t-9.5 26.5v629q0 18 9 28.5t24 10.5h218q100 0 162.5 -58t62.5 -152q0 -76 -43 -130t-116 -71l141 -235q10 -17 10 -29q0 -14 -8 -22t-22 -8q-21 0 -36 25l-153 261h-180v-249q0 -37 -34 -37zM735 710h177q73 0 117.5 41.5t44.5 110.5t-44.5 111t-116.5 42
h-178v-305z" />
    <glyph glyph-name="uni1000B8.small" unicode="S&#x20de;" horiz-adv-x="1795" 
d="M416 23q-216 0 -216 215v964q0 106 55 161t161 55h963q106 0 161 -55t55 -161v-964q0 -105 -55 -160t-161 -55h-963zM418 91h959q72 0 111 38.5t39 112.5v957q0 74 -39 112.5t-111 38.5h-959q-74 0 -112 -38.5t-38 -112.5v-957q0 -151 150 -151zM892 362q-94 0 -162.5 43
t-86.5 109q-4 16 -4 29q0 33 32 33q24 0 34 -28q13 -57 66.5 -91.5t127.5 -34.5q77 0 132.5 40.5t55.5 97.5q0 48 -34 76t-117 50l-110 29q-88 23 -129.5 64.5t-41.5 108.5q0 86 69 141.5t178 55.5q92 0 156 -40t81 -107q4 -15 4 -28q0 -33 -32 -33q-25 0 -34 28
q-13 56 -60.5 88.5t-117.5 32.5q-72 0 -122.5 -40.5t-50.5 -98.5q0 -42 30 -68.5t99 -44.5l106 -29q104 -28 150 -69.5t46 -109.5q0 -92 -72.5 -148t-192.5 -56z" />
    <glyph glyph-name="uni1000BA.small" unicode="T&#x20de;" horiz-adv-x="1795" 
d="M416 23q-216 0 -216 215v964q0 106 55 161t161 55h963q106 0 161 -55t55 -161v-964q0 -105 -55 -160t-161 -55h-963zM418 91h959q72 0 111 38.5t39 112.5v957q0 74 -39 112.5t-111 38.5h-959q-74 0 -112 -38.5t-38 -112.5v-957q0 -151 150 -151zM893 367
q-15 0 -24.5 10.5t-9.5 26.5v607h-210q-13 0 -21.5 8.5t-8.5 21.5q0 14 8.5 22.5t21.5 8.5h496q13 0 21.5 -8.5t8.5 -22.5q0 -13 -8.5 -21.5t-21.5 -8.5h-217v-607q0 -17 -9.5 -27t-25.5 -10z" />
    <glyph glyph-name="uni1000BC.small" unicode="U&#x20de;" horiz-adv-x="1795" 
d="M416 23q-216 0 -216 215v964q0 106 55 161t161 55h963q106 0 161 -55t55 -161v-964q0 -105 -55 -160t-161 -55h-963zM418 91h959q72 0 111 38.5t39 112.5v957q0 74 -39 112.5t-111 38.5h-959q-74 0 -112 -38.5t-38 -112.5v-957q0 -151 150 -151zM897 362q-121 0 -198 69
t-77 183v428q0 37 34 37t34 -37v-424q0 -87 58.5 -141t148.5 -54q91 0 149 54t58 141v424q0 17 9.5 27t24.5 10q35 0 35 -37v-428q0 -114 -77 -183t-199 -69z" />
    <glyph glyph-name="uni1000BE.small" unicode="V&#x20de;" horiz-adv-x="1795" 
d="M416 23q-216 0 -216 215v964q0 106 55 161t161 55h963q106 0 161 -55t55 -161v-964q0 -105 -55 -160t-161 -55h-963zM418 91h959q72 0 111 38.5t39 112.5v957q0 74 -39 112.5t-111 38.5h-959q-74 0 -112 -38.5t-38 -112.5v-957q0 -151 150 -151zM898 366q-39 0 -55 40
l-237 620q-4 16 -4 21q0 14 9.5 23t25.5 9q26 0 36 -30l222 -600h5l221 600q11 30 37 30q15 0 24.5 -9t9.5 -23q0 -9 -4 -21l-236 -620q-15 -40 -54 -40z" />
    <glyph glyph-name="uni1000C0.small" unicode="W&#x20de;" horiz-adv-x="1795" 
d="M416 23q-216 0 -216 215v964q0 106 55 161t161 55h963q106 0 161 -55t55 -161v-964q0 -105 -55 -160t-161 -55h-963zM418 91h959q72 0 111 38.5t39 112.5v957q0 74 -39 112.5t-111 38.5h-959q-74 0 -112 -38.5t-38 -112.5v-957q0 -151 150 -151zM696 366q-39 0 -49 40
l-159 628q-2 10 -2 13q0 14 9 23t25 9q27 0 34 -33l142 -582h5l156 580q7 31 40 31t40 -31l157 -580h4l142 582q9 33 34 33q16 0 25 -9t9 -23q0 -8 -2 -13l-159 -628q-10 -40 -49 -40q-40 0 -49 38l-150 566h-4l-150 -566q-9 -38 -49 -38z" />
    <glyph glyph-name="uni1000C2.small" unicode="X&#x20de;" horiz-adv-x="1795" 
d="M416 23q-216 0 -216 215v964q0 106 55 161t161 55h963q106 0 161 -55t55 -161v-964q0 -105 -55 -160t-161 -55h-963zM418 91h959q72 0 111 38.5t39 112.5v957q0 74 -39 112.5t-111 38.5h-959q-74 0 -112 -38.5t-38 -112.5v-957q0 -151 150 -151zM672 368q-14 0 -23 9
t-9 21t7 23l209 304l-203 298q-9 12 -9 24q0 13 9.5 22.5t23.5 9.5q20 0 33 -19l188 -283h4l188 283q13 19 31 19q14 0 23.5 -8.5t9.5 -21.5q0 -10 -8 -23l-209 -302l206 -301q8 -13 8 -23q0 -14 -9.5 -23t-22.5 -9q-19 0 -33 20l-188 283h-4l-190 -283q-14 -20 -32 -20z
" />
    <glyph glyph-name="uni1000C4.small" unicode="Y&#x20de;" horiz-adv-x="1795" 
d="M416 23q-216 0 -216 215v964q0 106 55 161t161 55h963q106 0 161 -55t55 -161v-964q0 -105 -55 -160t-161 -55h-963zM418 91h959q72 0 111 38.5t39 112.5v957q0 74 -39 112.5t-111 38.5h-959q-74 0 -112 -38.5t-38 -112.5v-957q0 -151 150 -151zM897 368q-16 0 -25 10
t-9 27v262l-241 360q-6 11 -6 21q0 14 9 22.5t23 8.5q20 0 32 -20l216 -321h4l215 321q12 20 32 20q14 0 23 -8.5t9 -22.5q0 -13 -7 -21l-240 -359v-263q0 -17 -9.5 -27t-25.5 -10z" />
    <glyph glyph-name="uni1000C6.small" unicode="Z&#x20de;" horiz-adv-x="1795" 
d="M416 23q-216 0 -216 215v964q0 106 55 161t161 55h963q106 0 161 -55t55 -161v-964q0 -105 -55 -160t-161 -55h-963zM418 91h959q72 0 111 38.5t39 112.5v957q0 74 -39 112.5t-111 38.5h-959q-74 0 -112 -38.5t-38 -112.5v-957q0 -151 150 -151zM675 375q-18 0 -29 10
t-11 27q0 16 15 38l408 558v4h-391q-13 0 -21.5 8.5t-8.5 21.5t8.5 22t21.5 9h435q17 0 28.5 -11t11.5 -28t-14 -37l-406 -557v-5h409q13 0 21.5 -8.5t8.5 -21.5t-8.5 -21.5t-21.5 -8.5h-456z" />
    <glyph glyph-name="uni100005.small" unicode="A&#x20dd;&#x25cf;" horiz-adv-x="1825" 
d="M913 -52q-156 0 -299 61.5t-247 165t-165.5 247t-61.5 299.5q0 208 104 386t282 282t386 104t386.5 -104t282.5 -282t104 -386q0 -209 -104 -387t-281.5 -282t-386.5 -104zM643 348q25 0 35 30l76 207h316l76 -207q10 -30 37 -30q14 0 23.5 9t9.5 22q0 11 -5 23l-250 662
q-13 36 -49 36q-35 0 -49 -36l-250 -662q-5 -13 -5 -22q0 -32 35 -32zM776 645l134 362h4l134 -362h-272z" />
    <glyph glyph-name="uni100007.small" unicode="B&#x20dd;&#x25cf;" horiz-adv-x="1825" 
d="M913 -52q-156 0 -299 61.5t-247 165t-165.5 247t-61.5 299.5q0 208 104 386t282 282t386 104t386.5 -104t282.5 -282t104 -386q0 -209 -104 -387t-281.5 -282t-386.5 -104zM703 353h242q120 0 189.5 55t69.5 150q0 75 -44.5 124t-121.5 60v3q55 13 88.5 59t33.5 108
q0 80 -60.5 131t-157.5 51h-239q-37 0 -37 -40v-660q0 -41 37 -41zM736 764v271h193q76 0 118 -35.5t42 -99.5q0 -60 -49 -98t-128 -38h-176zM736 413v293h217q83 0 130 -39.5t47 -107.5q0 -146 -216 -146h-178z" />
    <glyph glyph-name="uni100009.small" unicode="C&#x20dd;&#x25cf;" horiz-adv-x="1825" 
d="M913 -52q-156 0 -299 61.5t-247 165t-165.5 247t-61.5 299.5q0 208 104 386t282 282t386 104t386.5 -104t282.5 -282t104 -386q0 -209 -104 -387t-281.5 -282t-386.5 -104zM919 344q106 0 185.5 54t98.5 139q3 14 3 27q0 34 -32 34q-25 0 -33 -28q-15 -74 -75 -118.5
t-146 -44.5q-113 0 -184 88.5t-71 228.5t71 228t184 88q86 0 146.5 -44.5t74.5 -118.5q8 -28 33 -28q32 0 32 34q0 13 -3 27q-19 84 -99.5 138.5t-184.5 54.5q-146 0 -236.5 -104.5t-90.5 -274.5t90 -275t237 -105z" />
    <glyph glyph-name="uni10000B.small" unicode="D&#x20dd;&#x25cf;" horiz-adv-x="1825" 
d="M913 -52q-156 0 -299 61.5t-247 165t-165.5 247t-61.5 299.5q0 208 104 386t282 282t386 104t386.5 -104t282.5 -282t104 -386q0 -209 -104 -387t-281.5 -282t-386.5 -104zM688 357h217q162 0 252 96t90 273q0 171 -91 267.5t-251 96.5h-217q-16 0 -25 -11t-9 -29v-652
q0 -19 9 -30t25 -11zM725 419v609h171q128 0 201.5 -79.5t73.5 -223.5q0 -150 -72.5 -228t-202.5 -78h-171z" />
    <glyph glyph-name="uni10000D.small" unicode="E&#x20dd;&#x25cf;" horiz-adv-x="1825" 
d="M913 -52q-156 0 -299 61.5t-247 165t-165.5 247t-61.5 299.5q0 208 104 386t282 282t386 104t386.5 -104t282.5 -282t104 -386q0 -209 -104 -387t-281.5 -282t-386.5 -104zM714 357h399q15 0 23.5 9t8.5 23t-8.5 23t-23.5 9h-360v280h340q15 0 23.5 8.5t8.5 21.5
q0 31 -32 31h-340v265h360q15 0 23.5 9t8.5 22q0 14 -8.5 23t-23.5 9h-399q-16 0 -25 -11t-9 -29v-652q0 -19 9 -30t25 -11z" />
    <glyph glyph-name="uni10000F.small" unicode="F&#x20dd;&#x25cf;" horiz-adv-x="1825" 
d="M913 -53q-156 0 -299 61.5t-247 165t-165.5 247t-61.5 299.5q0 208 104 386t282 282t386 104t386.5 -104t282.5 -282t104 -386q0 -209 -104 -387t-281.5 -282t-386.5 -104zM740 350q17 0 26.5 10.5t9.5 28.5v302h327q15 0 23.5 8.5t8.5 22.5q0 31 -32 31h-327v273h357
q15 0 23.5 9t8.5 22q0 14 -8.5 23t-23.5 9h-395q-34 0 -34 -40v-660q0 -18 9.5 -28.5t26.5 -10.5z" />
    <glyph glyph-name="uni100011.small" unicode="G&#x20dd;&#x25cf;" horiz-adv-x="1825" 
d="M913 -52q-156 0 -299 61.5t-247 165t-165.5 247t-61.5 299.5q0 208 104 386t282 282t386 104t386.5 -104t282.5 -282t104 -386q0 -209 -104 -387t-281.5 -282t-386.5 -104zM920 344q133 0 212 79.5t79 210.5v58q0 18 -9.5 28.5t-26.5 10.5h-241q-14 0 -22 -8.5t-8 -21.5
q0 -12 8 -20.5t22 -8.5h205v-43q0 -103 -57.5 -162.5t-161.5 -59.5q-113 0 -184 88t-71 229q0 140 71 228t184 88q86 0 146 -44.5t76 -118.5q8 -28 32 -28q32 0 32 34q0 15 -4 27q-19 76 -93.5 134.5t-189.5 58.5q-146 0 -236 -104t-90 -275q0 -172 90 -276t237 -104z" />
    <glyph glyph-name="uni100013.small" unicode="H&#x20dd;&#x25cf;" horiz-adv-x="1825" 
d="M913 -52q-156 0 -299 61.5t-247 165t-165.5 247t-61.5 299.5q0 208 104 386t282 282t386 104t386.5 -104t282.5 -282t104 -386q0 -209 -104 -387t-281.5 -282t-386.5 -104zM660 350q36 0 36 40v318h432v-318q0 -18 9.5 -29t25.5 -11q36 0 36 40v668q0 39 -36 39
q-35 0 -35 -39v-289h-432v289q0 39 -36 39q-16 0 -26 -10.5t-10 -28.5v-668q0 -18 10 -29t26 -11z" />
    <glyph glyph-name="uni100015.small" unicode="I&#x20dd;&#x25cf;" horiz-adv-x="1825" 
d="M913 -52q-156 0 -299 61.5t-247 165t-165.5 247t-61.5 299.5q0 208 104 386t282 282t386 104t386.5 -104t282.5 -282t104 -386q0 -209 -104 -387t-281.5 -282t-386.5 -104zM912 350q36 0 36 40v667q0 40 -36 40q-16 0 -26 -11t-10 -29v-667q0 -18 10 -29t26 -11z" />
    <glyph glyph-name="uni100017.small" unicode="J&#x20dd;&#x25cf;" horiz-adv-x="1825" 
d="M913 -52q-156 0 -299 61.5t-247 165t-165.5 247t-61.5 299.5q0 208 104 386t282 282t386 104t386.5 -104t282.5 -282t104 -386q0 -209 -104 -387t-281.5 -282t-386.5 -104zM883 348q100 0 155.5 58.5t55.5 159.5v492q0 39 -36 39q-16 0 -26 -11t-10 -28v-491
q0 -72 -36.5 -113.5t-100.5 -41.5q-58 0 -99 32t-49 85q-11 27 -34 27q-16 0 -25 -9.5t-9 -25.5q0 -12 3 -27q14 -64 73 -105t138 -41z" />
    <glyph glyph-name="uni100019.small" unicode="&#x212a;&#x20dd;&#x25cf;" horiz-adv-x="1825" 
d="M913 -52q-156 0 -299 61.5t-247 165t-165.5 247t-61.5 299.5q0 208 104 386t282 282t386 104t386.5 -104t282.5 -282t104 -386q0 -209 -104 -387t-281.5 -282t-386.5 -104zM697 350q36 0 36 40v227l108 110l277 -355q15 -20 35 -20q15 0 25 10t10 25q0 14 -12 29
l-282 360l260 263q12 13 12 27q0 13 -10 22t-23 9q-17 0 -32 -16l-365 -367h-3v343q0 40 -36 40q-16 0 -26 -11t-10 -29v-667q0 -18 10 -29t26 -11z" />
    <glyph glyph-name="uni10001B.small" unicode="L&#x20dd;&#x25cf;" horiz-adv-x="1825" 
d="M913 -52q-156 0 -299 61.5t-247 165t-165.5 247t-61.5 299.5q0 208 104 386t282 282t386 104t386.5 -104t282.5 -282t104 -386q0 -209 -104 -387t-281.5 -282t-386.5 -104zM744 357h389q15 0 23.5 9t8.5 23t-9 23t-23 9h-352v636q0 39 -37 39q-35 0 -35 -39v-661
q0 -18 9.5 -28.5t25.5 -10.5z" />
    <glyph glyph-name="uni10001D.small" unicode="M&#x20dd;&#x25cf;" horiz-adv-x="1825" 
d="M913 -52q-156 0 -299 61.5t-247 165t-165.5 247t-61.5 299.5q0 208 104 386t282 282t386 104t386.5 -104t282.5 -282t104 -386q0 -209 -104 -387t-281.5 -282t-386.5 -104zM599 349q33 0 33 36v591h5l232 -586q12 -29 42 -29q32 0 44 29l232 586h5v-591q0 -36 33 -36
q15 0 24.5 10t9.5 26v664q0 21 -14 34.5t-35 13.5q-36 0 -53 -39l-243 -614h-4l-243 614q-17 39 -53 39q-21 0 -35 -13.5t-14 -34.5v-664q0 -16 9.5 -26t24.5 -10z" />
    <glyph glyph-name="uni10001F.small" unicode="N&#x20dd;&#x25cf;" horiz-adv-x="1825" 
d="M913 -52q-156 0 -299 61.5t-247 165t-165.5 247t-61.5 299.5q0 208 104 386t282 282t386 104t386.5 -104t282.5 -282t104 -386q0 -209 -104 -387t-281.5 -282t-386.5 -104zM664 350q35 0 35 37v593h3l403 -600q20 -30 46 -30q20 0 32 12t12 33v665q0 17 -9.5 27t-25.5 10
q-35 0 -35 -37v-595h-4l-402 603q-19 29 -46 29q-44 0 -44 -48v-662q0 -17 9.5 -27t25.5 -10z" />
    <glyph glyph-name="uni100021.small" unicode="O&#x20dd;&#x25cf;" horiz-adv-x="1825" 
d="M913 -52q-156 0 -299 61.5t-247 165t-165.5 247t-61.5 299.5q0 208 104 386t282 282t386 104t386.5 -104t282.5 -282t104 -386q0 -209 -104 -387t-281.5 -282t-386.5 -104zM912 344q149 0 242 105t93 275q0 169 -93 274t-242 105q-150 0 -242.5 -104.5t-92.5 -274.5
t92.5 -275t242.5 -105zM912 406q-118 0 -190.5 88t-72.5 230t72.5 229.5t190.5 87.5t190 -87.5t72 -229.5q0 -143 -72 -230.5t-190 -87.5z" />
    <glyph glyph-name="uni100023.small" unicode="P&#x20dd;&#x25cf;" horiz-adv-x="1825" 
d="M913 -52q-156 0 -299 61.5t-247 165t-165.5 247t-61.5 299.5q0 208 104 386t282 282t386 104t386.5 -104t282.5 -282t104 -386q0 -209 -104 -387t-281.5 -282t-386.5 -104zM733 351q36 0 36 39v239h193q103 0 168.5 65t65.5 166q0 100 -66 165t-168 65h-230
q-35 0 -35 -40v-660q0 -17 10 -28t26 -11zM769 690v339h188q74 0 121 -47.5t47 -121.5q0 -75 -47 -122.5t-121 -47.5h-188z" />
    <glyph glyph-name="uni100025.small" unicode="Q&#x20dd;&#x25cf;" horiz-adv-x="1825" 
d="M913 -52q-156 0 -299 61.5t-247 165t-165.5 247t-61.5 299.5q0 208 104 386t282 282t386 104t386.5 -104t282.5 -282t104 -386q0 -209 -104 -387t-281.5 -282t-386.5 -104zM912 346q77 0 138 29l68 -95q13 -17 30 -17q13 0 20.5 8t7.5 21q0 11 -11 26l-63 87
q70 49 108.5 132t38.5 190q0 168 -93 273t-244 105q-150 0 -243 -105t-93 -273q0 -170 92.5 -275.5t243.5 -105.5zM912 408q-118 0 -190.5 88t-72.5 231q0 142 72.5 229t190.5 87t191 -87t73 -229q0 -185 -113 -269l-72 100q-11 14 -27 14q-12 0 -20.5 -8t-8.5 -20
q0 -10 11 -24l67 -94q-43 -18 -101 -18z" />
    <glyph glyph-name="uni100027.small" unicode="R&#x20dd;&#x25cf;" horiz-adv-x="1825" 
d="M913 -52q-156 0 -299 61.5t-247 165t-165.5 247t-61.5 299.5q0 208 104 386t282 282t386 104t386.5 -104t282.5 -282t104 -386q0 -209 -104 -387t-281.5 -282t-386.5 -104zM705 351q37 0 37 39v260h189l160 -274q14 -25 38 -25q14 0 23 8.5t9 22.5t-11 30l-148 248
q76 16 121.5 73t45.5 136q0 99 -65 160t-171 61h-229q-34 0 -34 -40v-660q0 -18 9.5 -28.5t25.5 -10.5zM742 710v319h187q76 0 122 -43.5t46 -117.5q0 -72 -46 -115t-123 -43h-186z" />
    <glyph glyph-name="uni100029.small" unicode="S&#x20dd;&#x25cf;" horiz-adv-x="1825" 
d="M913 -52q-156 0 -299 61.5t-247 165t-165.5 247t-61.5 299.5q0 208 104 386t282 282t386 104t386.5 -104t282.5 -282t104 -386q0 -209 -104 -387t-281.5 -282t-386.5 -104zM907 339q128 0 205 59.5t77 157.5q0 73 -49 117t-160 74l-113 30q-73 19 -104.5 47.5t-31.5 73.5
q0 61 53 103.5t130 42.5q74 0 125 -34t64 -93q10 -30 37 -30q34 0 34 35q0 12 -5 30q-17 70 -85.5 113t-166.5 43q-116 0 -189 -59t-73 -151q0 -71 43.5 -115t137.5 -69l117 -31q88 -23 124 -52.5t36 -80.5q0 -61 -58.5 -104t-140.5 -43q-79 0 -136 36.5t-70 96.5
q-10 31 -36 31q-35 0 -35 -36q0 -10 5 -30q18 -70 91 -116t174 -46z" />
    <glyph glyph-name="uni10002B.small" unicode="T&#x20dd;&#x25cf;" horiz-adv-x="1825" 
d="M913 -52q-156 0 -299 61.5t-247 165t-165.5 247t-61.5 299.5q0 208 104 386t282 282t386 104t386.5 -104t282.5 -282t104 -386q0 -209 -104 -387t-281.5 -282t-386.5 -104zM912 351q17 0 27 10.5t10 28.5v637h227q14 0 23 8.5t9 22.5q0 15 -9 23.5t-23 8.5h-520
q-14 0 -23 -8.5t-9 -23.5q0 -13 9 -22t23 -9h220v-637q0 -17 10 -28t26 -11z" />
    <glyph glyph-name="uni10002D.small" unicode="U&#x20dd;&#x25cf;" horiz-adv-x="1825" 
d="M913 -52q-156 0 -299 61.5t-247 165t-165.5 247t-61.5 299.5q0 208 104 386t282 282t386 104t386.5 -104t282.5 -282t104 -386q0 -209 -104 -387t-281.5 -282t-386.5 -104zM912 344q128 0 209 72.5t81 192.5v449q0 39 -37 39q-16 0 -25.5 -10.5t-9.5 -28.5v-445
q0 -92 -61.5 -149t-156.5 -57t-156 57t-61 149v445q0 39 -36 39q-17 0 -26.5 -10.5t-9.5 -28.5v-449q0 -120 81 -192.5t208 -72.5z" />
    <glyph glyph-name="uni10002F.small" unicode="V&#x20dd;&#x25cf;" horiz-adv-x="1825" 
d="M913 -52q-156 0 -299 61.5t-247 165t-165.5 247t-61.5 299.5q0 208 104 386t282 282t386 104t386.5 -104t282.5 -282t104 -386q0 -209 -104 -387t-281.5 -282t-386.5 -104zM913 348q42 0 57 43l249 651q4 11 4 21q0 15 -10 24.5t-26 9.5q-27 0 -39 -31l-233 -631h-4
l-233 631q-11 31 -38 31q-16 0 -26 -9.5t-10 -24.5q0 -12 4 -21l248 -652q17 -42 57 -42z" />
    <glyph glyph-name="uni100031.small" unicode="W&#x20dd;&#x25cf;" horiz-adv-x="1825" 
d="M913 -52q-156 0 -299 61.5t-247 165t-165.5 247t-61.5 299.5q0 208 104 386t282 282t386 104t386.5 -104t282.5 -282t104 -386q0 -209 -104 -387t-281.5 -282t-386.5 -104zM701 348q42 0 52 41l157 593h5l157 -593q9 -41 52 -41q39 0 51 42l167 659q2 5 2 13
q0 16 -9.5 25.5t-25.5 9.5q-29 0 -36 -34l-150 -612h-4l-165 609q-8 32 -42 32t-42 -32l-164 -609h-5l-149 612q-7 34 -36 34q-16 0 -25.5 -9.5t-9.5 -25.5q0 -8 2 -13l167 -659q10 -42 51 -42z" />
    <glyph glyph-name="uni100033.small" unicode="X&#x20dd;&#x25cf;" horiz-adv-x="1825" 
d="M913 -52q-156 0 -299 61.5t-247 165t-165.5 247t-61.5 299.5q0 208 104 386t282 282t386 104t386.5 -104t282.5 -282t104 -386q0 -209 -104 -387t-281.5 -282t-386.5 -104zM676 350q19 0 34 22l200 296h3l199 -296q15 -22 33 -22q15 0 25 10t10 24q0 12 -9 24l-216 316
l219 317q8 11 8 24q0 14 -9.5 23t-24.5 9q-19 0 -33 -21l-197 -296h-4l-198 297q-13 20 -34 20q-15 0 -25 -10t-10 -24q0 -12 10 -25l213 -313l-219 -320q-8 -10 -8 -23t9.5 -22.5t23.5 -9.5z" />
    <glyph glyph-name="uni100035.small" unicode="Y&#x20dd;&#x25cf;" horiz-adv-x="1825" 
d="M913 -52q-156 0 -299 61.5t-247 165t-165.5 247t-61.5 299.5q0 208 104 386t282 282t386 104t386.5 -104t282.5 -282t104 -386q0 -209 -104 -387t-281.5 -282t-386.5 -104zM912 350q17 0 27 11t10 29v275l252 377q7 10 7 22q0 14 -9.5 23.5t-23.5 9.5q-20 0 -34 -22
l-226 -337h-4l-227 337q-12 22 -34 22q-14 0 -24 -9.5t-10 -22.5q0 -11 7 -23l253 -377v-275q0 -18 10 -29t26 -11z" />
    <glyph glyph-name="uni100037.small" unicode="Z&#x20dd;&#x25cf;" horiz-adv-x="1825" 
d="M913 -52q-156 0 -299 61.5t-247 165t-165.5 247t-61.5 299.5q0 208 104 386t282 282t386 104t386.5 -104t282.5 -282t104 -386q0 -209 -104 -387t-281.5 -282t-386.5 -104zM679 357h478q14 0 23 9t9 23q0 13 -9.5 22.5t-22.5 9.5h-429v4l426 586q15 20 15 39
q0 17 -12 28.5t-31 11.5h-455q-14 0 -23 -9t-9 -23t9 -22.5t23 -8.5h409v-5l-427 -586q-17 -22 -17 -40q0 -17 12 -28t31 -11z" />
    <glyph glyph-name="uni100095.small" unicode="A&#x20de;&#x25a0;" horiz-adv-x="1795" 
d="M416 23q-216 0 -216 215v964q0 106 55 161t161 55h963q106 0 161 -55t55 -161v-964q0 -105 -55 -160t-161 -55h-963zM628 348q25 0 35 30l76 207h316l76 -207q10 -30 37 -30q14 0 23.5 9t9.5 22q0 11 -5 23l-250 662q-14 36 -49 36t-49 -36l-250 -662q-5 -13 -5 -22
q0 -32 35 -32zM761 645l134 362h4l134 -362h-272z" />
    <glyph glyph-name="uni100097.small" unicode="B&#x20de;&#x25a0;" horiz-adv-x="1795" 
d="M416 23q-216 0 -216 215v964q0 106 55 161t161 55h963q106 0 161 -55t55 -161v-964q0 -105 -55 -160t-161 -55h-963zM688 353h242q120 0 189.5 55t69.5 150q0 75 -44.5 124t-121.5 60v3q55 13 88.5 59t33.5 108q0 80 -60.5 131t-157.5 51h-239q-37 0 -37 -40v-660
q0 -41 37 -41zM721 764v271h193q76 0 118 -35.5t42 -99.5q0 -60 -49 -98t-128 -38h-176zM721 413v293h217q83 0 130 -39.5t47 -107.5q0 -146 -216 -146h-178z" />
    <glyph glyph-name="uni100099.small" unicode="C&#x20de;&#x25a0;" horiz-adv-x="1795" 
d="M416 23q-216 0 -216 215v964q0 106 55 161t161 55h963q106 0 161 -55t55 -161v-964q0 -105 -55 -160t-161 -55h-963zM904 344q106 0 185.5 54t98.5 139q3 14 3 27q0 34 -32 34q-25 0 -33 -28q-15 -74 -75 -118.5t-146 -44.5q-113 0 -184 88.5t-71 228.5t71 228t184 88
q86 0 146.5 -44.5t74.5 -118.5q8 -28 33 -28q32 0 32 34q0 13 -3 27q-19 84 -99.5 138.5t-184.5 54.5q-146 0 -236.5 -104.5t-90.5 -274.5t90 -275t237 -105z" />
    <glyph glyph-name="uni10009B.small" unicode="D&#x20de;&#x25a0;" horiz-adv-x="1795" 
d="M416 23q-216 0 -216 215v964q0 106 55 161t161 55h963q106 0 161 -55t55 -161v-964q0 -105 -55 -160t-161 -55h-963zM673 357h217q162 0 252 96t90 273q0 171 -91 267.5t-251 96.5h-217q-16 0 -25 -11t-9 -29v-652q0 -19 9 -30t25 -11zM710 419v609h171
q128 0 201.5 -79.5t73.5 -223.5q0 -150 -72.5 -228t-202.5 -78h-171z" />
    <glyph glyph-name="uni10009F.small" unicode="F&#x20de;&#x25a0;" horiz-adv-x="1795" 
d="M416 23q-216 0 -216 215v964q0 106 55 161t161 55h963q106 0 161 -55t55 -161v-964q0 -105 -55 -160t-161 -55h-963zM725 351q17 0 26.5 10.5t9.5 28.5v302h327q15 0 23.5 8.5t8.5 22.5q0 31 -32 31h-327v273h357q15 0 23.5 9t8.5 22q0 14 -8.5 23t-23.5 9h-395
q-34 0 -34 -40v-660q0 -18 9.5 -28.5t26.5 -10.5z" />
    <glyph glyph-name="uni1000A1.small" unicode="G&#x20de;&#x25a0;" horiz-adv-x="1795" 
d="M416 23q-216 0 -216 215v964q0 106 55 161t161 55h963q106 0 161 -55t55 -161v-964q0 -105 -55 -160t-161 -55h-963zM905 344q133 0 212 79.5t79 210.5v58q0 18 -9.5 28.5t-26.5 10.5h-241q-14 0 -22 -8.5t-8 -21.5q0 -12 8 -20.5t22 -8.5h205v-43q0 -103 -57.5 -162.5
t-161.5 -59.5q-113 0 -184 88t-71 229q0 140 71 228t184 88q86 0 146 -44.5t76 -118.5q8 -28 32 -28q32 0 32 34q0 15 -4 27q-19 76 -93.5 134.5t-189.5 58.5q-146 0 -236 -104t-90 -275q0 -172 90 -276t237 -104z" />
    <glyph glyph-name="uni1000A3.small" unicode="H&#x20de;&#x25a0;" horiz-adv-x="1795" 
d="M416 23q-216 0 -216 215v964q0 106 55 161t161 55h963q106 0 161 -55t55 -161v-964q0 -105 -55 -160t-161 -55h-963zM645 350q36 0 36 40v318h432v-318q0 -18 9.5 -29t25.5 -11q36 0 36 40v668q0 39 -36 39q-35 0 -35 -39v-289h-432v289q0 39 -36 39q-16 0 -26 -10.5
t-10 -28.5v-668q0 -18 10 -29t26 -11z" />
    <glyph glyph-name="uni1000A5.small" unicode="I&#x20de;&#x25a0;" horiz-adv-x="1795" 
d="M416 23q-216 0 -216 215v964q0 106 55 161t161 55h963q106 0 161 -55t55 -161v-964q0 -105 -55 -160t-161 -55h-963zM897 350q36 0 36 40v667q0 40 -36 40q-16 0 -26 -11t-10 -29v-667q0 -18 10 -29t26 -11z" />
    <glyph glyph-name="uni1000A7.small" unicode="J&#x20de;&#x25a0;" horiz-adv-x="1795" 
d="M416 23q-216 0 -216 215v964q0 106 55 161t161 55h963q106 0 161 -55t55 -161v-964q0 -105 -55 -160t-161 -55h-963zM868 348q100 0 155.5 58.5t55.5 159.5v492q0 39 -36 39q-16 0 -26 -11t-10 -28v-491q0 -72 -36.5 -113.5t-100.5 -41.5q-58 0 -99 32t-49 85
q-11 27 -34 27q-16 0 -25 -9.5t-9 -25.5q0 -12 3 -27q14 -64 73 -105t138 -41z" />
    <glyph glyph-name="uni1000A9.small" unicode="&#x212a;&#x20de;&#x25a0;" horiz-adv-x="1795" 
d="M416 23q-216 0 -216 215v964q0 106 55 161t161 55h963q106 0 161 -55t55 -161v-964q0 -105 -55 -160t-161 -55h-963zM682 350q36 0 36 40v227l108 110l277 -355q15 -20 35 -20q15 0 25 10t10 25q0 14 -12 29l-282 360l260 263q12 13 12 27q0 13 -10 22t-23 9
q-17 0 -32 -16l-365 -367h-3v343q0 40 -36 40q-16 0 -26 -11t-10 -29v-667q0 -18 10 -29t26 -11z" />
    <glyph glyph-name="uni1000AB.small" unicode="L&#x20de;&#x25a0;" horiz-adv-x="1795" 
d="M416 23q-216 0 -216 215v964q0 106 55 161t161 55h963q106 0 161 -55t55 -161v-964q0 -105 -55 -160t-161 -55h-963zM729 357h389q15 0 23.5 9t8.5 23t-9 23t-23 9h-352v636q0 39 -37 39q-35 0 -35 -39v-661q0 -18 9.5 -28.5t25.5 -10.5z" />
    <glyph glyph-name="uni1000AD.small" unicode="M&#x20de;&#x25a0;" horiz-adv-x="1795" 
d="M416 23q-216 0 -216 215v964q0 106 55 161t161 55h963q106 0 161 -55t55 -161v-964q0 -105 -55 -160t-161 -55h-963zM584 349q33 0 33 36v591h5l232 -586q12 -29 42 -29q32 0 44 29l232 586h5v-591q0 -36 33 -36q15 0 24.5 10t9.5 26v664q0 21 -14 34.5t-35 13.5
q-36 0 -53 -39l-243 -614h-4l-243 614q-17 39 -53 39q-21 0 -35 -13.5t-14 -34.5v-664q0 -16 9.5 -26t24.5 -10z" />
    <glyph glyph-name="uni1000AF.small" unicode="N&#x20de;&#x25a0;" horiz-adv-x="1795" 
d="M416 23q-216 0 -216 215v964q0 106 55 161t161 55h963q106 0 161 -55t55 -161v-964q0 -105 -55 -160t-161 -55h-963zM649 350q35 0 35 37v593h3l403 -600q20 -30 46 -30q20 0 32 12t12 33v665q0 17 -9.5 27t-25.5 10q-35 0 -35 -37v-595h-4l-402 603q-19 29 -46 29
q-44 0 -44 -48v-662q0 -17 9.5 -27t25.5 -10z" />
    <glyph glyph-name="uni1000B1.small" unicode="O&#x20de;&#x25a0;" horiz-adv-x="1795" 
d="M416 23q-216 0 -216 215v964q0 106 55 161t161 55h963q106 0 161 -55t55 -161v-964q0 -105 -55 -160t-161 -55h-963zM897 344q149 0 242 105t93 275q0 169 -93 274t-242 105q-150 0 -242.5 -104.5t-92.5 -274.5t92.5 -275t242.5 -105zM897 406q-118 0 -190.5 88
t-72.5 230t72.5 229.5t190.5 87.5t190 -87.5t72 -229.5q0 -143 -72 -230.5t-190 -87.5z" />
    <glyph glyph-name="uni1000B3.small" unicode="P&#x20de;&#x25a0;" horiz-adv-x="1795" 
d="M416 23q-216 0 -216 215v964q0 106 55 161t161 55h963q106 0 161 -55t55 -161v-964q0 -105 -55 -160t-161 -55h-963zM718 351q36 0 36 39v239h193q103 0 168.5 65t65.5 166q0 100 -66 165t-168 65h-230q-35 0 -35 -40v-660q0 -17 10 -28t26 -11zM754 690v339h188
q74 0 121 -47.5t47 -121.5q0 -75 -47 -122.5t-121 -47.5h-188z" />
    <glyph glyph-name="uni1000B5.small" unicode="Q&#x20de;&#x25a0;" horiz-adv-x="1795" 
d="M416 23q-216 0 -216 215v964q0 106 55 161t161 55h963q106 0 161 -55t55 -161v-964q0 -105 -55 -160t-161 -55h-963zM897 346q77 0 138 29l68 -95q13 -17 30 -17q13 0 20.5 8t7.5 21q0 11 -11 26l-63 87q70 49 108.5 132t38.5 190q0 168 -93 273t-244 105
q-150 0 -243 -105t-93 -273q0 -170 92.5 -275.5t243.5 -105.5zM897 408q-118 0 -190.5 88t-72.5 231q0 142 72.5 229t190.5 87t191 -87t73 -229q0 -184 -113 -269l-72 100q-11 14 -27 14q-12 0 -20.5 -8t-8.5 -20q0 -10 11 -24l67 -94q-43 -18 -101 -18z" />
    <glyph glyph-name="uni1000B7.small" unicode="R&#x20de;&#x25a0;" horiz-adv-x="1795" 
d="M416 23q-216 0 -216 215v964q0 106 55 161t161 55h963q106 0 161 -55t55 -161v-964q0 -105 -55 -160t-161 -55h-963zM690 351q37 0 37 39v260h189l160 -274q14 -25 38 -25q14 0 23 8.5t9 22.5t-11 30l-148 248q76 16 121.5 73t45.5 136q0 99 -65 160t-171 61h-229
q-34 0 -34 -40v-660q0 -18 9.5 -28.5t25.5 -10.5zM727 710v319h187q76 0 122 -43.5t46 -117.5q0 -72 -46 -115t-123 -43h-186z" />
    <glyph glyph-name="uni1000B9.small" unicode="S&#x20de;&#x25a0;" horiz-adv-x="1795" 
d="M416 23q-216 0 -216 215v964q0 106 55 161t161 55h963q106 0 161 -55t55 -161v-964q0 -105 -55 -160t-161 -55h-963zM892 339q128 0 205 59.5t77 157.5q0 73 -49 117t-160 74l-113 30q-73 19 -104.5 47.5t-31.5 73.5q0 61 53 103.5t130 42.5q74 0 125 -34t64 -93
q10 -30 37 -30q34 0 34 35q0 12 -5 30q-17 70 -85.5 113t-166.5 43q-116 0 -189 -59t-73 -151q0 -71 43.5 -115t137.5 -69l117 -31q88 -23 124 -52.5t36 -80.5q0 -61 -58.5 -104t-140.5 -43q-79 0 -136 36.5t-70 96.5q-10 31 -36 31q-35 0 -35 -36q0 -10 5 -30
q18 -70 91 -116t174 -46z" />
    <glyph glyph-name="uni1000BB.small" unicode="T&#x20de;&#x25a0;" horiz-adv-x="1795" 
d="M416 23q-216 0 -216 215v964q0 106 55 161t161 55h963q106 0 161 -55t55 -161v-964q0 -105 -55 -160t-161 -55h-963zM897 351q17 0 27 10.5t10 28.5v637h227q14 0 23 8.5t9 22.5q0 15 -9 23.5t-23 8.5h-520q-14 0 -23 -8.5t-9 -23.5q0 -13 9 -22t23 -9h220v-637
q0 -17 10 -28t26 -11z" />
    <glyph glyph-name="uni1000BD.small" unicode="U&#x20de;&#x25a0;" horiz-adv-x="1795" 
d="M416 23q-216 0 -216 215v964q0 106 55 161t161 55h963q106 0 161 -55t55 -161v-964q0 -105 -55 -160t-161 -55h-963zM897 344q128 0 209 72.5t81 192.5v449q0 39 -37 39q-16 0 -25.5 -10.5t-9.5 -28.5v-445q0 -92 -61.5 -149t-156.5 -57t-156 57t-61 149v445q0 39 -36 39
q-17 0 -26.5 -10.5t-9.5 -28.5v-449q0 -120 80.5 -192.5t208.5 -72.5z" />
    <glyph glyph-name="uni1000BF.small" unicode="V&#x20de;&#x25a0;" horiz-adv-x="1795" 
d="M416 23q-216 0 -216 215v964q0 106 55 161t161 55h963q106 0 161 -55t55 -161v-964q0 -105 -55 -160t-161 -55h-963zM898 348q42 0 57 43l249 651q4 11 4 21q0 15 -10 24.5t-26 9.5q-27 0 -39 -31l-233 -631h-4l-233 631q-11 31 -38 31q-16 0 -26.5 -10t-10.5 -24
q0 -12 5 -21l248 -652q17 -42 57 -42z" />
    <glyph glyph-name="uni1000C1.small" unicode="W&#x20de;&#x25a0;" horiz-adv-x="1795" 
d="M416 23q-216 0 -216 215v964q0 106 55 161t161 55h963q106 0 161 -55t55 -161v-964q0 -105 -55 -160t-161 -55h-963zM686 348q42 0 52 41l157 593h5l157 -593q9 -41 52 -41q39 0 51 42l167 659q2 5 2 13q0 16 -9.5 25.5t-25.5 9.5q-29 0 -36 -34l-150 -612h-4l-165 609
q-8 32 -42 32t-42 -32l-164 -609h-5l-149 612q-7 34 -36 34q-16 0 -25.5 -9.5t-9.5 -25.5q0 -8 2 -13l167 -659q11 -42 51 -42z" />
    <glyph glyph-name="uni1000C3.small" unicode="X&#x20de;&#x25a0;" horiz-adv-x="1795" 
d="M416 23q-216 0 -216 215v964q0 106 55 161t161 55h963q106 0 161 -55t55 -161v-964q0 -105 -55 -160t-161 -55h-963zM661 350q19 0 34 22l200 296h3l199 -296q15 -22 33 -22q16 0 25.5 10t9.5 24q0 12 -9 24l-216 316l219 317q8 11 8 24q0 14 -9.5 23t-24.5 9
q-19 0 -33 -21l-197 -296h-4l-198 297q-13 20 -34 20q-15 0 -25 -10t-10 -24q0 -12 10 -25l213 -313l-219 -320q-8 -10 -8 -23t9.5 -22.5t23.5 -9.5z" />
    <glyph glyph-name="uni1000C5.small" unicode="Y&#x20de;&#x25a0;" horiz-adv-x="1795" 
d="M416 23q-216 0 -216 215v964q0 106 55 161t161 55h963q106 0 161 -55t55 -161v-964q0 -105 -55 -160t-161 -55h-963zM897 350q17 0 27 11t10 29v275l252 377q7 10 7 22q0 14 -9.5 23.5t-23.5 9.5q-20 0 -34 -22l-226 -337h-4l-227 337q-12 22 -34 22q-14 0 -24 -9.5
t-10 -22.5q0 -11 7 -23l253 -377v-275q0 -18 10 -29t26 -11z" />
    <glyph glyph-name="uni1000C7.small" unicode="Z&#x20de;&#x25a0;" horiz-adv-x="1795" 
d="M416 23q-216 0 -216 215v964q0 106 55 161t161 55h963q106 0 161 -55t55 -161v-964q0 -105 -55 -160t-161 -55h-963zM664 357h478q14 0 23 9t9 23q0 13 -9 22.5t-23 9.5h-429v4l426 586q15 20 15 39q0 17 -12 28.5t-31 11.5h-455q-14 0 -23 -9t-9 -23t9 -22.5t23 -8.5
h409v-5l-427 -586q-17 -22 -17 -40q0 -17 12 -28t31 -11z" />
    <glyph glyph-name="uni10004D.small" unicode="&#x2b;&#x20dd;&#x25cf;" horiz-adv-x="1825" 
d="M913 -52q-156 0 -299 61.5t-247 165t-165.5 247t-61.5 299.5q0 208 104 386t282 282t386 104t386.5 -104t282.5 -282t104 -386q0 -209 -104 -387t-281.5 -282t-386.5 -104zM911 331q18 0 28 10.5t10 28.5v314h319q17 0 28.5 10t11.5 26q0 17 -11.5 27.5t-28.5 10.5h-319
v319q0 18 -10 29t-28 11q-16 0 -26 -11t-10 -29v-319h-318q-17 0 -28.5 -10.5t-11.5 -27.5q0 -16 11.5 -26t28.5 -10h318v-314q0 -17 10 -28t26 -11z" />
    <glyph glyph-name="uni10004F.small" unicode="&#x2212;&#x20dd;&#x25cf;" horiz-adv-x="1825" 
d="M913 -52q-156 0 -299 61.5t-247 165t-165.5 247t-61.5 299.5q0 208 104 386t282 282t386 104t386.5 -104t282.5 -282t104 -386q0 -209 -104 -387t-281.5 -282t-386.5 -104zM541 684h742q18 0 29 10t11 26q0 17 -11 27.5t-29 10.5h-742q-17 0 -28.5 -10.5t-11.5 -27.5
q0 -16 11.5 -26t28.5 -10z" />
    <glyph glyph-name="uni100051.small" unicode="&#xd7;&#x20dd;&#x25cf;" horiz-adv-x="1825" 
d="M913 -52q-156 0 -299 61.5t-247 165t-165.5 247t-61.5 299.5q0 208 104 386t282 282t386 104t386.5 -104t282.5 -282t104 -386q0 -209 -104 -387t-281.5 -282t-386.5 -104zM619 391q15 0 29 12l264 265l265 -265q12 -12 29 -12q16 0 26.5 10.5t10.5 25.5q0 16 -12 28
l-266 266l267 266q11 12 11 28t-10.5 26t-26.5 10t-28 -12l-266 -265l-265 264q-12 13 -28 13t-26.5 -10.5t-10.5 -25.5q0 -16 12 -28l265 -266l-265 -266q-12 -12 -12 -28q0 -15 10.5 -25.5t26.5 -10.5z" />
    <glyph glyph-name="uni100052.small" unicode="&#xf7;&#x20dd;" horiz-adv-x="1825" 
d="M913 -52q-156 0 -299 61.5t-247 165t-165.5 247t-61.5 299.5q0 208 104 386t282 282t386 104t386.5 -104t282.5 -282t104 -386q0 -209 -104 -387t-281.5 -282t-386.5 -104zM913 18q191 0 352.5 94t255.5 256t94 353t-94 352.5t-256 255.5t-353 94t-352.5 -94
t-255.5 -255.5t-94 -352.5t94 -353t256 -256t353 -94zM912 947q-25 0 -42.5 16t-17.5 40q0 26 17.5 43.5t42.5 17.5q26 0 43.5 -17t17.5 -43q0 -24 -17.5 -40.5t-43.5 -16.5zM571 685q-17 0 -27.5 9t-10.5 25t10.5 25.5t27.5 9.5h682q17 0 27.5 -9.5t10.5 -25.5t-10.5 -25
t-27.5 -9h-682zM912 375q-25 0 -42.5 16.5t-17.5 40.5q0 25 17.5 42.5t42.5 17.5q26 0 43.5 -17t17.5 -43q0 -24 -17.5 -40.5t-43.5 -16.5z" />
    <glyph glyph-name="uni100053.small" unicode="&#xf7;&#x20dd;&#x25cf;" horiz-adv-x="1825" 
d="M913 -52q-156 0 -299 61.5t-247 165t-165.5 247t-61.5 299.5q0 208 104 386t282 282t386 104t386.5 -104t282.5 -282t104 -386q0 -209 -104 -387t-281.5 -282t-386.5 -104zM912 959q27 0 45.5 17.5t18.5 43.5q0 27 -18 45t-46 18q-26 0 -44.5 -18.5t-18.5 -45.5
q0 -25 18.5 -42.5t44.5 -17.5zM554 685h717q18 0 28.5 9.5t10.5 26.5q0 36 -39 36h-717q-40 0 -40 -36q0 -17 11 -26.5t29 -9.5zM912 359q27 0 45.5 17.5t18.5 43.5q0 27 -18 45t-46 18q-26 0 -44.5 -18.5t-18.5 -45.5q0 -26 18 -43t45 -17z" />
    <glyph glyph-name="uni100055.small" unicode="&#x3d;&#x20dd;&#x25cf;" horiz-adv-x="1825" 
d="M913 -52q-156 0 -299 61.5t-247 165t-165.5 247t-61.5 299.5q0 208 104 386t282 282t386 104t386.5 -104t282.5 -282t104 -386q0 -209 -104 -387t-281.5 -282t-386.5 -104zM575 833h673q17 0 27.5 9t10.5 25t-10.5 25.5t-27.5 9.5h-673q-17 0 -27.5 -9.5t-10.5 -25.5
t10.5 -25t27.5 -9zM575 540h673q17 0 27.5 9t10.5 25q0 35 -38 35h-673q-38 0 -38 -35q0 -16 10.5 -25t27.5 -9z" />
    <glyph glyph-name="uni100056.small" unicode="&#x3e;&#x20dd;" horiz-adv-x="1825" 
d="M913 -52q-156 0 -299 61.5t-247 165t-165.5 247t-61.5 299.5q0 208 104 386t282 282t386 104t386.5 -104t282.5 -282t104 -386q0 -209 -104 -387t-281.5 -282t-386.5 -104zM913 18q191 0 352.5 94t255.5 256t94 353t-94 352.5t-256 255.5t-353 94t-352.5 -94
t-255.5 -255.5t-94 -352.5t94 -353t256 -256t353 -94zM721 433q-16 0 -26 9.5t-10 24.5q0 23 26 36l409 216v4l-409 216q-26 14 -26 37q0 15 10 24.5t26 9.5q8 0 22 -7l445 -244q25 -15 25 -39q0 -26 -25 -39l-445 -242q-11 -6 -22 -6z" />
    <glyph glyph-name="uni100057.small" unicode="&#x3e;&#x20dd;&#x25cf;" horiz-adv-x="1825" 
d="M913 -52q-156 0 -299 61.5t-247 165t-165.5 247t-61.5 299.5q0 208 104 386t282 282t386 104t386.5 -104t282.5 -282t104 -386q0 -209 -104 -387t-281.5 -282t-386.5 -104zM710 420q10 0 24 7l466 253q26 14 26 41t-26 41l-466 257q-13 7 -25 7q-16 0 -26.5 -10
t-10.5 -26q0 -24 27 -38l429 -228v-4l-429 -226q-27 -14 -27 -38q0 -16 10.5 -26t27.5 -10z" />
    <glyph glyph-name="uni100058.small" unicode="&#x3c;&#x20dd;" horiz-adv-x="1825" 
d="M913 -52q-156 0 -299 61.5t-247 165t-165.5 247t-61.5 299.5q0 208 104 386t282 282t386 104t386.5 -104t282.5 -282t104 -386q0 -209 -104 -387t-281.5 -282t-386.5 -104zM913 18q191 0 352.5 94t255.5 256t94 353t-94 352.5t-256 255.5t-353 94t-352.5 -94
t-255.5 -255.5t-94 -352.5t94 -353t256 -256t353 -94zM1104 433q-11 0 -23 6l-444 242q-25 13 -25 39q0 24 25 39l444 244q14 7 23 7q16 0 25.5 -9.5t9.5 -24.5q0 -23 -25 -37l-409 -216v-4l409 -216q25 -13 25 -36q0 -15 -10 -24.5t-25 -9.5z" />
    <glyph glyph-name="uni100059.small" unicode="&#x3c;&#x20dd;&#x25cf;" horiz-adv-x="1825" 
d="M913 -52q-156 0 -299 61.5t-247 165t-165.5 247t-61.5 299.5q0 208 104 386t282 282t386 104t386.5 -104t282.5 -282t104 -386q0 -209 -104 -387t-281.5 -282t-386.5 -104zM1115 420q16 0 26.5 10t10.5 26q0 24 -27 38l-429 226v4l429 228q27 14 27 38q0 16 -10.5 26
t-26.5 10q-11 0 -24 -7l-466 -257q-27 -15 -27 -41q0 -27 27 -41l466 -253q14 -7 24 -7z" />
    <glyph glyph-name="uni10005A.small" unicode="&#x23;&#x20dd;" horiz-adv-x="1825" 
d="M913 -52q-156 0 -299 61.5t-247 165t-165.5 247t-61.5 299.5q0 208 104 386t282 282t386 104t386.5 -104t282.5 -282t104 -386q0 -209 -104 -387t-281.5 -282t-386.5 -104zM913 18q191 0 352.5 94t255.5 256t94 353t-94 352.5t-256 255.5t-353 94t-352.5 -94
t-255.5 -255.5t-94 -352.5t94 -353t256 -256t353 -94zM727 364q-15 0 -24 10.5t-6 24.5l36 178h-93q-13 0 -20.5 7.5t-7.5 19.5q0 13 8.5 21.5t22.5 8.5h104l38 183h-90q-13 0 -20.5 7.5t-7.5 19.5q0 14 9 22.5t23 8.5h98l37 177q6 27 34 27q15 0 24 -10.5t6 -24.5l-36 -169
h167l38 177q6 27 33 27q15 0 24 -10t6 -25l-35 -169h90q27 0 27 -27q0 -14 -8.5 -22.5t-22.5 -8.5h-98l-39 -183h86q12 0 19.5 -7.5t7.5 -19.5q0 -14 -8.5 -22t-22.5 -8h-95l-38 -186q-6 -27 -34 -27q-15 0 -24 10.5t-6 24.5l38 177h-168l-39 -185q-6 -27 -33 -27zM810 631
h171l39 188h-172z" />
    <glyph glyph-name="uni10005B.small" unicode="&#x23;&#x20dd;&#x25cf;" horiz-adv-x="1825" 
d="M913 -52q-156 0 -299 61.5t-247 165t-165.5 247t-61.5 299.5q0 208 104 386t282 282t386 104t386.5 -104t282.5 -282t104 -386q0 -209 -104 -387t-281.5 -282t-386.5 -104zM718 348q28 0 34 29l41 193h176l-39 -185q-3 -15 6.5 -26t24.5 -11q30 0 36 29l40 194h100
q14 0 23 9t9 23q0 28 -28 28h-90l41 192h103q14 0 23 9t9 23q0 29 -28 29h-95l37 178q3 15 -6 25.5t-25 10.5q-29 0 -35 -28l-40 -186h-176l38 178q3 15 -6 25.5t-25 10.5q-30 0 -36 -28l-39 -186h-103q-14 0 -23.5 -9t-9.5 -23q0 -13 8 -21t21 -8h95l-40 -192h-109
q-15 0 -24 -9t-9 -23q0 -12 8 -20t21 -8h98l-38 -186q-3 -16 6 -26.5t26 -10.5zM805 628l40 198h181l-41 -198h-180z" />
    <glyph glyph-name="uni10005C.small" unicode="&#x3f;&#x20dd;" horiz-adv-x="1825" 
d="M913 -52q-156 0 -299 61.5t-247 165t-165.5 247t-61.5 299.5q0 208 104 386t282 282t386 104t386.5 -104t282.5 -282t104 -386q0 -209 -104 -387t-281.5 -282t-386.5 -104zM913 18q191 0 352.5 94t255.5 256t94 353t-94 352.5t-256 255.5t-353 94t-352.5 -94
t-255.5 -255.5t-94 -352.5t94 -353t256 -256t353 -94zM899 563q-16 0 -25.5 9.5t-9.5 25.5v25q0 48 22 82.5t72 68.5q57 40 80 70t23 69q0 52 -40 84.5t-107 32.5q-59 0 -98.5 -34t-48.5 -86q-8 -17 -15.5 -24.5t-23.5 -7.5q-13 0 -22.5 9t-9.5 23q0 11 4 31q10 63 69 106.5
t148 43.5q93 0 155 -48.5t62 -125.5q0 -57 -27.5 -96.5t-90.5 -82.5q-47 -31 -65.5 -57t-18.5 -62v-23q0 -14 -9 -23.5t-24 -9.5zM897 350q-25 0 -43 18t-18 42q0 25 18 42.5t43 17.5t43 -17.5t18 -42.5t-18 -42.5t-43 -17.5z" />
    <glyph glyph-name="uni10005D.small" unicode="&#x3f;&#x20dd;&#x25cf;" horiz-adv-x="1825" 
d="M913 -52q-156 0 -299 61.5t-247 165t-165.5 247t-61.5 299.5q0 208 104 386t282 282t386 104t386.5 -104t282.5 -282t104 -386q0 -209 -104 -387t-281.5 -282t-386.5 -104zM905 557q16 0 25.5 9.5t9.5 24.5v24q0 37 19.5 63.5t69.5 61.5q66 48 94.5 88.5t28.5 99.5
q0 81 -64.5 132t-163.5 51q-94 0 -155.5 -45.5t-72.5 -111.5q-3 -16 -3 -33q0 -15 9.5 -24t23.5 -9q28 0 41 33q6 54 48.5 90t105.5 36q70 0 112 -34.5t42 -88.5q0 -42 -23.5 -73t-84.5 -73q-52 -36 -75 -72t-23 -86v-27q0 -17 9.5 -26.5t26.5 -9.5zM907 337q27 0 46.5 19
t19.5 45q0 27 -19.5 46t-46.5 19q-26 0 -45.5 -19t-19.5 -46q0 -26 19.5 -45t45.5 -19z" />
    <glyph glyph-name="uni10005E.small" unicode="&#x21;&#x20dd;" horiz-adv-x="1825" 
d="M913 -52q-156 0 -299 61.5t-247 165t-165.5 247t-61.5 299.5q0 208 104 386t282 282t386 104t386.5 -104t282.5 -282t104 -386q0 -209 -104 -387t-281.5 -282t-386.5 -104zM913 18q191 0 352.5 94t255.5 256t94 353t-94 352.5t-256 255.5t-353 94t-352.5 -94
t-255.5 -255.5t-94 -352.5t94 -353t256 -256t353 -94zM912 581q-34 0 -36 40l-7 424q0 19 12 31t31 12t31 -12t12 -31l-7 -424q0 -19 -9.5 -29.5t-26.5 -10.5zM912 350q-25 0 -43 18t-18 42q0 25 18 42.5t43 17.5t43 -17.5t18 -42.5t-18 -42.5t-43 -17.5z" />
    <glyph glyph-name="uni10005F.small" unicode="&#x21;&#x20dd;&#x25cf;" horiz-adv-x="1825" 
d="M913 -52q-156 0 -299 61.5t-247 165t-165.5 247t-61.5 299.5q0 208 104 386t282 282t386 104t386.5 -104t282.5 -282t104 -386q0 -209 -104 -387t-281.5 -282t-386.5 -104zM912 585q39 0 41 45l7 426q1 22 -12.5 35.5t-35.5 13.5t-35.5 -13.5t-12.5 -34.5l8 -427
q0 -21 11 -33t29 -12zM912 337q27 0 46.5 19t19.5 45q0 27 -19.5 46t-46.5 19q-26 0 -45.5 -19t-19.5 -46q0 -26 19.5 -45t45.5 -19z" />
    <glyph glyph-name="uni100060.small" unicode="&#x2717;&#x20dd;" horiz-adv-x="1825" 
d="M913 -52q-156 0 -299 61.5t-247 165t-165.5 247t-61.5 299.5q0 208 104 386t282 282t386 104t386.5 -104t282.5 -282t104 -386q0 -209 -104 -387t-281.5 -282t-386.5 -104zM913 18q191 0 352.5 94t255.5 256t94 353t-94 352.5t-256 255.5t-353 94t-352.5 -94
t-255.5 -255.5t-94 -352.5t94 -353t256 -256t353 -94zM633 405q-15 0 -25.5 10t-10.5 25q0 14 12 26l253 254l-253 253q-12 12 -12 26q0 15 10.5 25t25.5 10q13 0 27 -12l252 -253l253 253q12 12 27 12t25.5 -10t10.5 -24q0 -15 -12 -27l-253 -253l253 -254q12 -12 12 -26
q0 -15 -10.5 -25t-25.5 -10q-14 0 -28 12l-252 252l-252 -252q-11 -12 -27 -12z" />
    <glyph glyph-name="uni100061.small" unicode="&#x2717;&#x20dd;&#x25cf;" horiz-adv-x="1825" 
d="M913 -52q-156 0 -299 61.5t-247 165t-165.5 247t-61.5 299.5q0 208 104 386t282 282t386 104t386.5 -104t282.5 -282t104 -386q0 -209 -104 -387t-281.5 -282t-386.5 -104zM619 391q15 0 29 12l264 265l265 -265q12 -12 29 -12q16 0 26.5 10.5t10.5 25.5q0 16 -12 28
l-266 266l267 266q11 12 11 28t-10.5 26t-26.5 10t-28 -12l-266 -265l-265 264q-12 13 -28 13t-26.5 -10.5t-10.5 -25.5q0 -16 12 -28l265 -266l-265 -266q-12 -12 -12 -28q0 -15 10.5 -25.5t26.5 -10.5z" />
    <glyph glyph-name="uni100062.small" unicode="&#x2713;&#x20dd;" horiz-adv-x="1825" 
d="M913 -52q-156 0 -299 61.5t-247 165t-165.5 247t-61.5 299.5q0 208 104 386t282 282t386 104t386.5 -104t282.5 -282t104 -386q0 -209 -104 -387t-281.5 -282t-386.5 -104zM913 18q191 0 352.5 94t255.5 256t94 353t-94 352.5t-256 255.5t-353 94t-352.5 -94
t-255.5 -255.5t-94 -352.5t94 -353t256 -256t353 -94zM810 330q-21 0 -37 19l-250 294q-11 14 -11 29q0 16 10.5 26t24.5 10q19 0 33 -17l228 -270l404 631q12 20 32 20q14 0 25 -9.5t11 -24.5q0 -13 -9 -27l-426 -661q-13 -20 -35 -20z" />
    <glyph glyph-name="uni100063.small" unicode="&#x2713;&#x20dd;&#x25cf;" horiz-adv-x="1825" 
d="M913 -52q-156 0 -299 61.5t-247 165t-165.5 247t-61.5 299.5q0 208 104 386t282 282t386 104t386.5 -104t282.5 -282t104 -386q0 -209 -104 -387t-281.5 -282t-386.5 -104zM838 332q23 0 36 21l429 666q10 15 10 28q0 15 -11.5 25t-25.5 10q-20 0 -32 -21l-408 -636
l-230 272q-13 17 -33 17q-14 0 -25 -10t-11 -26t11 -30l253 -296q16 -20 37 -20z" />
    <glyph glyph-name="uni100066.small" unicode="&#x25b2;&#x20dd;" horiz-adv-x="1825" 
d="M913 -52q-156 0 -299 61.5t-247 165t-165.5 247t-61.5 299.5q0 208 104 386t282 282t386 104t386.5 -104t282.5 -282t104 -386q0 -209 -104 -387t-281.5 -282t-386.5 -104zM913 18q191 0 352.5 94t255.5 256t94 353t-94 352.5t-256 255.5t-353 94t-352.5 -94
t-255.5 -255.5t-94 -352.5t94 -353t256 -256t353 -94zM1187 522h-549q-22 0 -30.5 20.5t4.5 40.5l267 440q12 21 34.5 21t34.5 -21l265 -440q13 -21 4.5 -41t-30.5 -20z" />
    <glyph glyph-name="uni100067.small" unicode="&#x25b2;&#x20dd;&#x25cf;" horiz-adv-x="1825" 
d="M913 -52q-156 0 -299 61.5t-247 165t-165.5 247t-61.5 299.5q0 208 104 386t282 282t386 104t386.5 -104t282.5 -282t104 -386q0 -209 -104 -387t-281.5 -282t-386.5 -104zM1204 506q23 0 32.5 21t-4.5 44l-281 467q-14 22 -37.5 22t-37.5 -22l-283 -467
q-13 -22 -4 -43.5t32 -21.5h583z" />
    <glyph glyph-name="uni100068.small" unicode="&#x25bc;&#x20dd;" horiz-adv-x="1825" 
d="M913 -52q-156 0 -299 61.5t-247 165t-165.5 247t-61.5 299.5q0 208 104 386t282 282t386 104t386.5 -104t282.5 -282t104 -386q0 -209 -104 -387t-281.5 -282t-386.5 -104zM913 18q191 0 352.5 94t255.5 256t94 353t-94 352.5t-256 255.5t-353 94t-352.5 -94
t-255.5 -255.5t-94 -352.5t94 -353t256 -256t353 -94zM1181 920q22 0 31 -20t-4 -41l-265 -440q-13 -21 -35 -21t-35 21l-267 440q-12 20 -4 40.5t30 20.5h549z" />
    <glyph glyph-name="uni100069.small" unicode="&#x25bc;&#x20dd;&#x25cf;" horiz-adv-x="1825" 
d="M913 -52q-156 0 -299 61.5t-247 165t-165.5 247t-61.5 299.5q0 208 104 386t282 282t386 104t386.5 -104t282.5 -282t104 -386q0 -209 -104 -387t-281.5 -282t-386.5 -104zM1204 936h-583q-23 0 -32 -21.5t4 -43.5l283 -467q14 -22 37.5 -22t37.5 22l281 467
q14 23 4.5 44t-32.5 21z" />
    <glyph glyph-name="uni10006A.small" unicode="&#x25c0;&#x20dd;" horiz-adv-x="1825" 
d="M913 -52q-156 0 -299 61.5t-247 165t-165.5 247t-61.5 299.5q0 208 104 386t282 282t386 104t386.5 -104t282.5 -282t104 -386q0 -209 -104 -387t-281.5 -282t-386.5 -104zM913 18q191 0 352.5 94t255.5 256t94 353t-94 352.5t-256 255.5t-353 94t-352.5 -94
t-255.5 -255.5t-94 -352.5t94 -353t256 -256t353 -94zM598 685q-20 13 -20 35t20 35l440 267q21 12 41 4t20 -30v-549q0 -22 -20 -30.5t-41 3.5z" />
    <glyph glyph-name="uni10006B.small" unicode="&#x25c0;&#x20dd;&#x25cf;" horiz-adv-x="1825" 
d="M913 -52q-156 0 -299 61.5t-247 165t-165.5 247t-61.5 299.5q0 208 104 386t282 282t386 104t386.5 -104t282.5 -282t104 -386q0 -209 -104 -387t-281.5 -282t-386.5 -104zM1038 406q22 -13 43 -4.5t21 31.5v576q0 22 -21 31.5t-43 -3.5l-462 -280q-22 -13 -22 -37
t22 -37z" />
    <glyph glyph-name="uni10006C.small" unicode="&#x25b6;&#x20dd;" horiz-adv-x="1825" 
d="M913 -52q-156 0 -299 61.5t-247 165t-165.5 247t-61.5 299.5q0 208 104 386t282 282t386 104t386.5 -104t282.5 -282t104 -386q0 -209 -104 -387t-281.5 -282t-386.5 -104zM913 18q191 0 352.5 94t255.5 256t94 353t-94 352.5t-256 255.5t-353 94t-352.5 -94
t-255.5 -255.5t-94 -352.5t94 -353t256 -256t353 -94zM762 420q-21 -12 -41 -3.5t-20 30.5v549q0 22 20.5 30t40.5 -4l441 -267q20 -13 20 -35t-20 -35z" />
    <glyph glyph-name="uni10006D.small" unicode="&#x25b6;&#x20dd;&#x25cf;" horiz-adv-x="1825" 
d="M913 -52q-156 0 -299 61.5t-247 165t-165.5 247t-61.5 299.5q0 208 104 386t282 282t386 104t386.5 -104t282.5 -282t104 -386q0 -209 -104 -387t-281.5 -282t-386.5 -104zM760 406l463 277q21 13 21 37t-21 37l-463 280q-21 13 -42 3.5t-21 -31.5v-576q0 -23 20.5 -31.5
t42.5 4.5z" />
    <glyph glyph-name="uni1000C8.small" unicode="&#x30;&#x20de;" horiz-adv-x="1795" 
d="M416 23q-216 0 -216 215v964q0 106 55 161t161 55h963q106 0 161 -55t55 -161v-964q0 -105 -55 -160t-161 -55h-963zM418 91h959q72 0 111 38.5t39 112.5v957q0 74 -39 112.5t-111 38.5h-959q-74 0 -112 -38.5t-38 -112.5v-957q0 -151 150 -151zM897 362
q-113 0 -182.5 100t-69.5 261q0 162 69.5 262t182.5 100t183 -99.5t70 -262.5q0 -161 -70 -261t-183 -100zM897 422q84 0 135 82.5t51 218.5q0 137 -51 220t-135 83q-83 0 -134 -83.5t-51 -219.5t51 -218.5t134 -82.5z" />
    <glyph glyph-name="uni1000C9.small" unicode="&#x30;&#x20de;&#x25a0;" horiz-adv-x="1795" 
d="M416 23q-216 0 -216 215v964q0 106 55 161t161 55h963q106 0 161 -55t55 -161v-964q0 -105 -55 -160t-161 -55h-963zM897 344q119 0 192 104.5t73 274.5q0 171 -73 275.5t-192 104.5t-192 -104.5t-73 -275.5q0 -170 73 -274.5t192 -104.5zM897 406q-88 0 -141 87t-53 230
t53 230.5t141 87.5t141.5 -87t53.5 -231q0 -143 -53.5 -230t-141.5 -87z" />
    <glyph glyph-name="uni1000CA.small" unicode="&#x31;&#x20de;" horiz-adv-x="1795" 
d="M416 23q-216 0 -216 215v964q0 106 55 161t161 55h963q106 0 161 -55t55 -161v-964q0 -105 -55 -160t-161 -55h-963zM418 91h959q72 0 111 38.5t39 112.5v957q0 74 -39 112.5t-111 38.5h-959q-74 0 -112 -38.5t-38 -112.5v-957q0 -151 150 -151zM914 368
q-15 0 -24.5 10.5t-9.5 26.5v598h-4l-142 -91q-10 -7 -19 -7q-11 0 -19 8t-8 20q0 17 15 27l160 105q26 18 48 18q17 0 27.5 -10.5t10.5 -28.5v-639q0 -17 -9.5 -27t-25.5 -10z" />
    <glyph glyph-name="uni1000CB.small" unicode="&#x31;&#x20de;&#x25a0;" horiz-adv-x="1795" 
d="M416 23q-216 0 -216 215v964q0 106 55 161t161 55h963q106 0 161 -55t55 -161v-964q0 -105 -55 -160t-161 -55h-963zM919 350q17 0 26.5 10.5t9.5 28.5v671q0 19 -10.5 30t-28.5 11q-20 0 -51 -19l-168 -110q-16 -11 -16 -28q0 -13 8.5 -21t20.5 -8q10 0 20 6l149 96h4
v-628q0 -17 10 -28t26 -11z" />
    <glyph glyph-name="uni1000CC.small" unicode="&#x32;&#x20de;" horiz-adv-x="1795" 
d="M416 23q-216 0 -216 215v964q0 106 55 161t161 55h963q106 0 161 -55t55 -161v-964q0 -105 -55 -160t-161 -55h-963zM418 91h959q72 0 111 38.5t39 112.5v957q0 74 -39 112.5t-111 38.5h-959q-74 0 -112 -38.5t-38 -112.5v-957q0 -151 150 -151zM704 375q-34 0 -34 32
q0 15 12 28l266 294q88 94 88 167q0 59 -40.5 94.5t-108.5 35.5q-65 0 -109 -35t-52 -92q-8 -27 -32 -27q-31 0 -31 32q0 10 3 24q13 68 75.5 112.5t144.5 44.5q98 0 157 -51t59 -136q0 -52 -27 -100.5t-88 -115.5l-220 -243v-4h335q14 0 22.5 -8.5t8.5 -21.5t-8.5 -21.5
t-22.5 -8.5h-398z" />
    <glyph glyph-name="uni1000CD.small" unicode="&#x32;&#x20de;&#x25a0;" horiz-adv-x="1795" 
d="M416 23q-216 0 -216 215v964q0 106 55 161t161 55h963q106 0 161 -55t55 -161v-964q0 -105 -55 -160t-161 -55h-963zM694 356h418q14 0 23 9t9 23q0 15 -9 23.5t-23 8.5h-352v5l232 255q64 69 92 120t28 106q0 90 -61.5 143.5t-165.5 53.5q-86 0 -151.5 -46.5
t-79.5 -117.5q-3 -15 -3 -26q0 -15 9 -24.5t24 -9.5q25 0 33 28q9 61 55 97.5t115 36.5q71 0 113.5 -37.5t42.5 -99.5q0 -76 -93 -175l-279 -308q-13 -16 -13 -30q0 -16 10 -25.5t26 -9.5z" />
    <glyph glyph-name="uni1000CE.small" unicode="&#x33;&#x20de;" horiz-adv-x="1795" 
d="M416 23q-216 0 -216 215v964q0 106 55 161t161 55h963q106 0 161 -55t55 -161v-964q0 -105 -55 -160t-161 -55h-963zM418 91h959q72 0 111 38.5t39 112.5v957q0 74 -39 112.5t-111 38.5h-959q-74 0 -112 -38.5t-38 -112.5v-957q0 -151 150 -151zM892 362
q-85 0 -148.5 39.5t-81.5 103.5q-3 13 -3 24q0 14 9 23t23 9q23 0 32 -27q13 -51 59 -82t110 -31q79 0 128 40t49 105q0 61 -48 100.5t-121 39.5h-67q-13 0 -21 8.5t-8 21.5t8 21t21 8h62q63 0 106 38.5t43 96.5q0 56 -42 91.5t-110 35.5q-61 0 -103 -31t-51 -83
q-6 -26 -32 -26q-31 0 -31 31q0 7 2 25q10 63 71.5 102.5t144.5 39.5q95 0 156.5 -50t61.5 -127q0 -61 -39.5 -108.5t-98.5 -58.5v-5q70 -7 116.5 -56t46.5 -115q0 -89 -68.5 -146t-175.5 -57z" />
    <glyph glyph-name="uni1000CF.small" unicode="&#x33;&#x20de;&#x25a0;" horiz-adv-x="1795" 
d="M416 23q-216 0 -216 215v964q0 106 55 161t161 55h963q106 0 161 -55t55 -161v-964q0 -105 -55 -160t-161 -55h-963zM892 344q112 0 184 60t72 153q0 70 -49 121t-122 59v5q62 11 103.5 61t41.5 114q0 81 -64.5 133.5t-164.5 52.5q-88 0 -149 -41.5t-78 -107.5
q-3 -14 -3 -26q0 -15 9.5 -24t23.5 -9q28 0 34 28q9 54 53 86.5t109 32.5q71 0 115.5 -37t44.5 -96q0 -60 -45.5 -101t-111.5 -41h-65q-13 0 -22 -8.5t-9 -21.5q0 -14 8.5 -22.5t22.5 -8.5h70q76 0 126.5 -42t50.5 -106q0 -68 -51.5 -110.5t-133.5 -42.5q-66 1 -115 33.5
t-63 85.5q-7 28 -34 28q-14 0 -23.5 -9t-9.5 -24q0 -10 3 -25q19 -67 85.5 -108.5t156.5 -41.5z" />
    <glyph glyph-name="uni1000D0.small" unicode="&#x34;&#x20de;" horiz-adv-x="1795" 
d="M416 23q-216 0 -216 215v964q0 106 55 161t161 55h963q106 0 161 -55t55 -161v-964q0 -105 -55 -160t-161 -55h-963zM418 91h959q72 0 111 38.5t39 112.5v957q0 74 -39 112.5t-111 38.5h-959q-74 0 -112 -38.5t-38 -112.5v-957q0 -151 150 -151zM979 368q-15 0 -24 10
t-9 26v131h-299q-24 0 -37.5 12.5t-13.5 34.5q0 15 12 39q93 151 281 425q26 39 70 39q24 0 38.5 -13t14.5 -35v-442h85q14 0 22.5 -8t8.5 -22q0 -13 -9 -21.5t-22 -8.5h-85v-131q0 -16 -9 -26t-24 -10zM946 595v425h-4q-55 -80 -148 -220.5t-128 -199.5v-5h280z" />
    <glyph glyph-name="uni1000D1.small" unicode="&#x34;&#x20de;&#x25a0;" horiz-adv-x="1795" 
d="M416 23q-216 0 -216 215v964q0 106 55 161t161 55h963q106 0 161 -55t55 -161v-964q0 -105 -55 -160t-161 -55h-963zM985 350q16 0 25 10t9 27v138h90q14 0 23 9t9 23t-9 23t-23 9h-90v463q0 23 -15 37t-41 14q-46 0 -73 -41q-219 -324 -294 -447q-13 -21 -13 -40
q0 -23 14 -36.5t39 -13.5h315v-138q0 -16 9.5 -26.5t24.5 -10.5zM951 589h-295v4q68 115 289 441h6v-445z" />
    <glyph glyph-name="uni1000D2.small" unicode="&#x35;&#x20de;" horiz-adv-x="1795" 
d="M416 23q-216 0 -216 215v964q0 106 55 161t161 55h963q106 0 161 -55t55 -161v-964q0 -105 -55 -160t-161 -55h-963zM418 91h959q72 0 111 38.5t39 112.5v957q0 74 -39 112.5t-111 38.5h-959q-74 0 -112 -38.5t-38 -112.5v-957q0 -151 150 -151zM887 362
q-85 0 -144.5 38.5t-77.5 101.5q-5 10 -5 21q0 13 8.5 21t21.5 8q23 0 32 -25q16 -47 63 -76.5t108 -29.5q75 0 125 50.5t50 126.5q0 75 -46.5 123t-121.5 48q-43 0 -77 -16t-70 -55q-21 -18 -41 -18q-19 0 -29.5 12t-8.5 30l25 306q2 21 14.5 33t33.5 12h335
q13 0 20.5 -8.5t7.5 -21.5q0 -12 -8 -20.5t-20 -8.5h-324l-22 -267h4q27 36 72.5 57t94.5 21q100 0 164 -63.5t64 -162.5q0 -106 -68.5 -171.5t-179.5 -65.5z" />
    <glyph glyph-name="uni1000D3.small" unicode="&#x35;&#x20de;&#x25a0;" horiz-adv-x="1795" 
d="M416 23q-216 0 -216 215v964q0 106 55 161t161 55h963q106 0 161 -55t55 -161v-964q0 -105 -55 -160t-161 -55h-963zM887 344q117 0 188.5 68.5t71.5 180.5q0 104 -67 170.5t-172 66.5q-52 0 -99.5 -22t-75.5 -59h-5l24 281h339q13 0 21.5 8t8.5 22q0 13 -8.5 22t-21.5 9
h-351q-46 0 -51 -47l-26 -321q-2 -20 9.5 -32.5t30.5 -12.5q21 0 43 19q38 40 73.5 57t80.5 17q79 0 128 -50t49 -129q0 -81 -52.5 -133.5t-131.5 -52.5q-64 0 -113 31.5t-66 80.5q-9 26 -33 26q-14 0 -23 -8.5t-9 -22.5q0 -10 5 -22q19 -66 82 -106.5t151 -40.5z" />
    <glyph glyph-name="uni1000D4.small" unicode="&#x36;&#x20de;" horiz-adv-x="1795" 
d="M416 23q-216 0 -216 215v964q0 106 55 161t161 55h963q106 0 161 -55t55 -161v-964q0 -105 -55 -160t-161 -55h-963zM418 91h959q72 0 111 38.5t39 112.5v957q0 74 -39 112.5t-111 38.5h-959q-74 0 -112 -38.5t-38 -112.5v-957q0 -151 150 -151zM902 362
q-69 0 -124.5 30.5t-87.5 87.5q-43 78 -43 223q0 183 71.5 282.5t198.5 99.5q75 0 131 -36.5t70 -78.5q4 -12 4 -19q0 -13 -7.5 -20.5t-19.5 -7.5q-19 0 -37 25q-19 35 -57 56.5t-86 21.5q-94 0 -149 -84.5t-55 -233.5v-9h4q59 124 207 124q96 0 161 -62.5t65 -160.5
q0 -108 -68 -173t-178 -65zM901 419q81 0 129.5 48t48.5 128q0 77 -49 124.5t-127 47.5q-79 0 -129.5 -48.5t-50.5 -122.5q0 -77 50.5 -127t127.5 -50z" />
    <glyph glyph-name="uni1000D5.small" unicode="&#x36;&#x20de;&#x25a0;" horiz-adv-x="1795" 
d="M416 23q-216 0 -216 215v964q0 106 55 161t161 55h963q106 0 161 -55t55 -161v-964q0 -105 -55 -160t-161 -55h-963zM889 344q116 0 187.5 68.5t71.5 181.5q0 103 -68.5 168.5t-169.5 65.5q-79 0 -133.5 -35t-83.5 -95h-4v10q0 156 57.5 244.5t156.5 88.5
q50 0 90.5 -22.5t59.5 -59.5q19 -26 39 -26q12 0 20 8t8 21q0 12 -4 20q-14 45 -73 83t-138 38q-133 0 -208 -104t-75 -297q0 -152 45 -234q33 -60 91.5 -92t130.5 -32zM888 404q-81 0 -133.5 52.5t-52.5 133.5q0 78 53 129t135 51t134 -50.5t52 -130.5q0 -84 -51.5 -134.5
t-136.5 -50.5z" />
    <glyph glyph-name="uni1000D6.small" unicode="&#x37;&#x20de;" horiz-adv-x="1795" 
d="M416 23q-216 0 -216 215v964q0 106 55 161t161 55h963q106 0 161 -55t55 -161v-964q0 -105 -55 -160t-161 -55h-963zM418 91h959q72 0 111 38.5t39 112.5v957q0 74 -39 112.5t-111 38.5h-959q-74 0 -112 -38.5t-38 -112.5v-957q0 -151 150 -151zM780 366q-15 0 -25 9
t-10 23q0 11 6 23l306 589v4h-365q-13 0 -21 8.5t-8 20.5q0 13 8 21.5t21 8.5h386q24 0 38.5 -12.5t14.5 -32.5q0 -17 -10 -37l-306 -600q-13 -25 -35 -25z" />
    <glyph glyph-name="uni1000D7.small" unicode="&#x37;&#x20de;&#x25a0;" horiz-adv-x="1795" 
d="M416 23q-216 0 -216 215v964q0 106 55 161t161 55h963q106 0 161 -55t55 -161v-964q0 -105 -55 -160t-161 -55h-963zM774 348q24 0 36 26l322 631q11 22 11 38q0 21 -15.5 34t-40.5 13h-405q-13 0 -21.5 -8.5t-8.5 -22.5q0 -13 8.5 -21.5t21.5 -8.5h383v-5l-321 -618
q-7 -13 -7 -24q0 -15 10.5 -24.5t26.5 -9.5z" />
    <glyph glyph-name="uni1000D8.small" unicode="&#x38;&#x20de;" horiz-adv-x="1795" 
d="M416 23q-216 0 -216 215v964q0 106 55 161t161 55h963q106 0 161 -55t55 -161v-964q0 -105 -55 -160t-161 -55h-963zM418 91h959q72 0 111 38.5t39 112.5v957q0 74 -39 112.5t-111 38.5h-959q-74 0 -112 -38.5t-38 -112.5v-957q0 -151 150 -151zM897 362
q-112 0 -183 57.5t-71 147.5q0 63 43 112t109 63v4q-56 17 -90 59t-34 96q0 81 63.5 132.5t162.5 51.5t162.5 -51.5t63.5 -132.5q0 -54 -34 -96.5t-89 -58.5v-4q66 -14 108.5 -63t42.5 -112q0 -89 -71.5 -147t-182.5 -58zM897 767q70 0 114.5 37t44.5 95t-44.5 94.5
t-114.5 36.5t-114.5 -36.5t-44.5 -94.5t45 -95t114 -37zM898 417q82 0 134.5 42.5t52.5 109.5q0 64 -52.5 105t-134.5 41q-83 0 -136 -41t-53 -105q0 -67 53 -109.5t136 -42.5z" />
    <glyph glyph-name="uni1000D9.small" unicode="&#x38;&#x20de;&#x25a0;" horiz-adv-x="1795" 
d="M416 23q-216 0 -216 215v964q0 106 55 161t161 55h963q106 0 161 -55t55 -161v-964q0 -105 -55 -160t-161 -55h-963zM897 344q117 0 192 60.5t75 154.5q0 66 -45 118t-114 66v4q58 17 94 61.5t36 101.5q0 85 -67 139t-171 54t-170.5 -54t-66.5 -139q0 -57 35.5 -101.5
t94.5 -61.5v-4q-70 -14 -114.5 -66t-44.5 -118q0 -95 74 -155t192 -60zM897 770q-73 0 -120 38.5t-47 99.5q0 60 47 99t120 39q74 0 121 -39t47 -99q0 -61 -47 -99.5t-121 -38.5zM898 401q-86 0 -142 45t-56 115q0 67 56 110.5t142 43.5t141.5 -43.5t55.5 -110.5
q0 -70 -55.5 -115t-141.5 -45z" />
    <glyph glyph-name="uni1000DA.small" unicode="&#x39;&#x20de;" horiz-adv-x="1795" 
d="M416 23q-216 0 -216 215v964q0 106 55 161t161 55h963q106 0 161 -55t55 -161v-964q0 -105 -55 -160t-161 -55h-963zM418 91h959q72 0 111 38.5t39 112.5v957q0 74 -39 112.5t-111 38.5h-959q-74 0 -112 -38.5t-38 -112.5v-957q0 -151 150 -151zM880 363
q-77 0 -135.5 38.5t-70.5 80.5q-3 7 -3 17q0 13 8 21t21 8q21 0 34 -24q21 -37 59.5 -59.5t86.5 -22.5q96 0 150.5 85t53.5 241h-4q-25 -60 -78 -93.5t-129 -33.5q-96 0 -161 64.5t-65 163.5q0 105 69 170.5t177 65.5q119 0 187.5 -83t68.5 -241q0 -197 -70 -297.5
t-199 -100.5zM892 677q78 0 129 50t51 124q0 75 -51.5 125.5t-126.5 50.5q-78 0 -128.5 -48.5t-50.5 -125.5q0 -76 49.5 -126t127.5 -50z" />
    <glyph glyph-name="uni1000DB.small" unicode="&#x39;&#x20de;&#x25a0;" horiz-adv-x="1795" 
d="M416 23q-216 0 -216 215v964q0 106 55 161t161 55h963q106 0 161 -55t55 -161v-964q0 -105 -55 -160t-161 -55h-963zM879 345q136 0 209 105t73 313q0 166 -71.5 253t-196.5 87q-114 0 -186.5 -69t-72.5 -179q0 -104 69 -171.5t169 -67.5q80 0 136 35.5t82 98.5h4
q0 -165 -57 -254t-158 -89q-51 0 -92.5 23t-60.5 63q-14 25 -36 25q-13 0 -22 -8.5t-9 -21.5q0 -10 3 -19q12 -43 74 -83.5t143 -40.5zM890 674q-82 0 -134.5 52.5t-52.5 132.5q0 81 53 132.5t136 51.5q79 0 133 -53t54 -133q0 -78 -54 -130.5t-135 -52.5z" />
    <glyph glyph-name="uni1000DC.small" unicode="&#x2b;&#x20de;" horiz-adv-x="1795" 
d="M416 23q-216 0 -216 215v964q0 106 55 161t161 55h963q106 0 161 -55t55 -161v-964q0 -105 -55 -160t-161 -55h-963zM418 91h959q72 0 111 38.5t39 112.5v957q0 74 -39 112.5t-111 38.5h-959q-74 0 -112 -38.5t-38 -112.5v-957q0 -151 150 -151zM896 350
q-15 0 -24.5 10.5t-9.5 26.5v299h-303q-16 0 -27 9.5t-11 24.5q0 16 10.5 26.5t27.5 10.5h303v303q0 17 9.5 27.5t24.5 10.5q17 0 27 -10.5t10 -27.5v-303h302q17 0 28 -10.5t11 -26.5q0 -15 -11 -24.5t-28 -9.5h-302v-299q0 -17 -10 -27t-27 -10z" />
    <glyph glyph-name="uni1000DD.small" unicode="&#x2b;&#x20de;&#x25a0;" horiz-adv-x="1795" 
d="M416 23q-216 0 -216 215v964q0 106 55 161t161 55h963q106 0 161 -55t55 -161v-964q0 -105 -55 -160t-161 -55h-963zM896 331q18 0 28 10.5t10 28.5v314h319q17 0 28.5 10t11.5 26q0 17 -11.5 27.5t-28.5 10.5h-319v319q0 18 -10 29t-28 11q-16 0 -26 -11t-10 -29v-319
h-318q-17 0 -28.5 -10.5t-11.5 -27.5q0 -16 11.5 -26t28.5 -10h318v-314q0 -17 10 -28t26 -11z" />
    <glyph glyph-name="uni1000DE.small" unicode="&#x2212;&#x20de;" horiz-adv-x="1795" 
d="M416 23q-216 0 -216 215v964q0 106 55 161t161 55h963q106 0 161 -55t55 -161v-964q0 -105 -55 -160t-161 -55h-963zM418 91h959q72 0 111 38.5t39 112.5v957q0 74 -39 112.5t-111 38.5h-959q-74 0 -112 -38.5t-38 -112.5v-957q0 -151 150 -151zM544 686q-16 0 -27 9.5
t-11 24.5q0 16 10.5 26t27.5 10h706q17 0 28 -10t11 -26q0 -15 -11 -24.5t-28 -9.5h-706z" />
    <glyph glyph-name="uni1000DF.small" unicode="&#x2212;&#x20de;&#x25a0;" horiz-adv-x="1795" 
d="M416 23q-216 0 -216 215v964q0 106 55 161t161 55h963q106 0 161 -55t55 -161v-964q0 -105 -55 -160t-161 -55h-963zM526 684h742q18 0 29 10t11 26q0 17 -11 27.5t-29 10.5h-742q-17 0 -28.5 -10.5t-11.5 -27.5q0 -16 11.5 -26t28.5 -10z" />
    <glyph glyph-name="uni1000E0.small" unicode="&#xd7;&#x20de;" horiz-adv-x="1795" 
d="M416 23q-216 0 -216 215v964q0 106 55 161t161 55h963q106 0 161 -55t55 -161v-964q0 -105 -55 -160t-161 -55h-963zM418 91h959q72 0 111 38.5t39 112.5v957q0 74 -39 112.5t-111 38.5h-959q-74 0 -112 -38.5t-38 -112.5v-957q0 -151 150 -151zM618 406
q-15 0 -25.5 10.5t-10.5 24.5q0 15 12 26l253 254l-253 254q-12 11 -12 26q0 14 10.5 24t25.5 10t27 -12l252 -252l253 252q13 13 27 13q15 0 25.5 -10t10.5 -25t-12 -26l-253 -254l253 -253q12 -12 12 -27q0 -14 -10.5 -24.5t-25.5 -10.5t-28 13l-252 252l-252 -252
q-12 -13 -27 -13z" />
    <glyph glyph-name="uni1000E1.small" unicode="&#xd7;&#x20de;&#x25a0;" horiz-adv-x="1795" 
d="M416 23q-216 0 -216 215v964q0 106 55 161t161 55h963q106 0 161 -55t55 -161v-964q0 -105 -55 -160t-161 -55h-963zM604 391q16 0 29 12l264 265l265 -265q12 -12 29 -12q16 0 26.5 10.5t10.5 25.5q0 16 -12 28l-266 266l267 266q11 12 11 28t-10.5 26t-26.5 10t-28 -12
l-266 -265l-265 264q-12 13 -28 13t-26.5 -10.5t-10.5 -25.5q0 -16 12 -28l265 -266l-265 -266q-12 -12 -12 -28q0 -15 10.5 -25.5t26.5 -10.5z" />
    <glyph glyph-name="uni1000E2.small" unicode="&#xf7;&#x20de;" horiz-adv-x="1795" 
d="M416 23q-216 0 -216 215v964q0 106 55 161t161 55h963q106 0 161 -55t55 -161v-964q0 -105 -55 -160t-161 -55h-963zM418 91h959q72 0 111 38.5t39 112.5v957q0 74 -39 112.5t-111 38.5h-959q-74 0 -112 -38.5t-38 -112.5v-957q0 -151 150 -151zM897 948
q-25 0 -42.5 16.5t-17.5 40.5q0 25 17.5 43t42.5 18q26 0 43.5 -17t17.5 -43q0 -25 -17.5 -41.5t-43.5 -16.5zM556 686q-17 0 -27.5 9.5t-10.5 25.5t10.5 25.5t27.5 9.5h682q17 0 27.5 -9.5t10.5 -25.5t-10.5 -25.5t-27.5 -9.5h-682zM897 376q-25 0 -42.5 16.5t-17.5 40.5
q0 25 17.5 43t42.5 18q26 0 43.5 -17t17.5 -43q0 -25 -17.5 -41.5t-43.5 -16.5z" />
    <glyph glyph-name="uni1000E3.small" unicode="&#xf7;&#x20de;&#x25a0;" horiz-adv-x="1795" 
d="M416 23q-216 0 -216 215v964q0 106 55 161t161 55h963q106 0 161 -55t55 -161v-964q0 -105 -55 -160t-161 -55h-963zM897 959q27 0 45.5 17.5t18.5 43.5q0 27 -18 45t-46 18q-26 0 -44.5 -18.5t-18.5 -45.5q0 -25 18.5 -42.5t44.5 -17.5zM539 685h717q18 0 28.5 9.5
t10.5 26.5q0 36 -39 36h-717q-40 0 -40 -36q0 -17 11 -26.5t29 -9.5zM897 359q27 0 45.5 17.5t18.5 43.5q0 27 -18 45t-46 18q-26 0 -44.5 -18.5t-18.5 -45.5q0 -26 18 -43t45 -17z" />
    <glyph glyph-name="uni1000E4.small" unicode="&#x3d;&#x20de;" horiz-adv-x="1795" 
d="M416 23q-216 0 -216 215v964q0 106 55 161t161 55h963q106 0 161 -55t55 -161v-964q0 -105 -55 -160t-161 -55h-963zM418 91h959q72 0 111 38.5t39 112.5v957q0 74 -39 112.5t-111 38.5h-959q-74 0 -112 -38.5t-38 -112.5v-957q0 -151 150 -151zM576 828q-36 0 -36 32
q0 15 10 24t26 9h641q36 0 36 -33q0 -32 -36 -32h-641zM576 549q-36 0 -36 32q0 15 10 24t26 9h641q36 0 36 -33q0 -32 -36 -32h-641z" />
    <glyph glyph-name="uni1000E5.small" unicode="&#x3d;&#x20de;&#x25a0;" horiz-adv-x="1795" 
d="M416 23q-216 0 -216 215v964q0 106 55 161t161 55h963q106 0 161 -55t55 -161v-964q0 -105 -55 -160t-161 -55h-963zM560 833h673q17 0 27.5 9t10.5 25t-10.5 25.5t-27.5 9.5h-673q-17 0 -27.5 -9.5t-10.5 -25.5t10.5 -25t27.5 -9zM560 540h673q17 0 27.5 9t10.5 25
q0 35 -38 35h-673q-38 0 -38 -35q0 -16 10.5 -25t27.5 -9z" />
    <glyph glyph-name="uni1000E8.small" unicode="&#x3e;&#x20de;" horiz-adv-x="1795" 
d="M416 23q-216 0 -216 215v964q0 106 55 161t161 55h963q106 0 161 -55t55 -161v-964q0 -105 -55 -160t-161 -55h-963zM418 91h959q72 0 111 38.5t39 112.5v957q0 74 -39 112.5t-111 38.5h-959q-74 0 -112 -38.5t-38 -112.5v-957q0 -151 150 -151zM706 434q-16 0 -26 9.5
t-10 25.5q0 23 26 36l409 215v4l-409 217q-26 13 -26 36q0 15 10 24.5t26 9.5q10 0 22 -6l445 -245q25 -13 25 -39q0 -24 -25 -39l-445 -241q-12 -7 -22 -7z" />
    <glyph glyph-name="uni1000E9.small" unicode="&#x3e;&#x20de;&#x25a0;" horiz-adv-x="1795" 
d="M416 23q-216 0 -216 215v964q0 106 55 161t161 55h963q106 0 161 -55t55 -161v-964q0 -105 -55 -160t-161 -55h-963zM695 420q10 0 24 7l466 253q26 14 26 41t-26 41l-466 257q-13 7 -25 7q-16 0 -26.5 -10t-10.5 -26q0 -24 27 -38l429 -228v-4l-429 -226
q-27 -14 -27 -38q0 -16 10.5 -26t27.5 -10z" />
    <glyph glyph-name="uni1000E6.small" unicode="&#x3c;&#x20de;" horiz-adv-x="1795" 
d="M416 23q-216 0 -216 215v964q0 106 55 161t161 55h963q106 0 161 -55t55 -161v-964q0 -105 -55 -160t-161 -55h-963zM418 91h959q72 0 111 38.5t39 112.5v957q0 74 -39 112.5t-111 38.5h-959q-74 0 -112 -38.5t-38 -112.5v-957q0 -151 150 -151zM1089 434q-9 0 -23 7
l-444 241q-25 14 -25 39q0 26 25 39l444 245q12 6 23 6q16 0 25.5 -9.5t9.5 -24.5q0 -23 -25 -36l-409 -217v-4l409 -215q25 -13 25 -36q0 -16 -10 -25.5t-25 -9.5z" />
    <glyph glyph-name="uni1000E7.small" unicode="&#x3c;&#x20de;&#x25a0;" horiz-adv-x="1795" 
d="M416 23q-216 0 -216 215v964q0 106 55 161t161 55h963q106 0 161 -55t55 -161v-964q0 -105 -55 -160t-161 -55h-963zM1100 420q16 0 26.5 10t10.5 26q0 24 -27 38l-429 226v4l429 228q27 14 27 38q0 16 -10.5 26t-26.5 10q-11 0 -24 -7l-466 -257q-27 -15 -27 -41
q0 -27 27 -41l466 -253q14 -7 24 -7z" />
    <glyph glyph-name="uni1000EA.small" unicode="&#x23;&#x20de;" horiz-adv-x="1795" 
d="M416 23q-216 0 -216 215v964q0 106 55 161t161 55h963q106 0 161 -55t55 -161v-964q0 -105 -55 -160t-161 -55h-963zM418 91h959q72 0 111 38.5t39 112.5v957q0 74 -39 112.5t-111 38.5h-959q-74 0 -112 -38.5t-38 -112.5v-957q0 -151 150 -151zM712 366q-15 0 -24 10
t-6 25l36 177h-93q-13 0 -20.5 7.5t-7.5 19.5q0 13 8.5 22t22.5 9h104l38 182h-90q-13 0 -20.5 8t-7.5 20q0 13 9 21.5t23 8.5h98l37 177q6 28 34 28q15 0 24 -10.5t6 -25.5l-36 -169h167l38 177q6 28 33 28q15 0 24 -10.5t6 -25.5l-35 -169h90q27 0 27 -27
q0 -14 -8.5 -22.5t-22.5 -8.5h-98l-39 -182h86q12 0 19.5 -7.5t7.5 -19.5q0 -14 -8.5 -22.5t-22.5 -8.5h-95l-38 -185q-6 -27 -34 -27q-15 0 -24 10t-6 25l38 177h-168l-39 -185q-6 -27 -33 -27zM795 633h171l39 188h-172z" />
    <glyph glyph-name="uni1000EB.small" unicode="&#x23;&#x20de;&#x25a0;" horiz-adv-x="1795" 
d="M416 23q-216 0 -216 215v964q0 106 55 161t161 55h963q106 0 161 -55t55 -161v-964q0 -105 -55 -160t-161 -55h-963zM703 348q28 0 34 29l41 193h176l-39 -185q-3 -15 6.5 -26t24.5 -11q30 0 36 29l40 194h100q14 0 23 9t9 23q0 28 -28 28h-90l41 192h103q14 0 23 9t9 23
q0 29 -28 29h-95l37 178q3 15 -6 25.5t-25 10.5q-29 0 -35 -28l-40 -186h-176l38 178q3 15 -6 25.5t-25 10.5q-30 0 -36 -28l-39 -186h-103q-15 0 -24 -9t-9 -23q0 -13 8 -21t21 -8h95l-40 -192h-109q-15 0 -24 -9t-9 -23q0 -12 8 -20t21 -8h98l-38 -186q-3 -16 6 -26.5
t26 -10.5zM790 628l40 198h181l-41 -198h-180z" />
    <glyph glyph-name="uni1000EC.small" unicode="&#x3f;&#x20de;" horiz-adv-x="1795" 
d="M416 23q-216 0 -216 215v964q0 106 55 161t161 55h963q106 0 161 -55t55 -161v-964q0 -105 -55 -160t-161 -55h-963zM418 91h959q72 0 111 38.5t39 112.5v957q0 74 -39 112.5t-111 38.5h-959q-74 0 -112 -38.5t-38 -112.5v-957q0 -151 150 -151zM884 565q-16 0 -25.5 9.5
t-9.5 25.5v25q0 48 22 82t71 69q58 41 81 70t23 68q0 52 -40 85t-107 33q-60 0 -99 -34t-48 -87q-8 -17 -15.5 -24t-23.5 -7q-13 0 -22.5 8.5t-9.5 22.5q0 19 4 32q10 62 69 105.5t148 43.5q93 0 155 -48.5t62 -125.5q0 -57 -27.5 -96.5t-90.5 -81.5q-47 -32 -65.5 -58
t-18.5 -62v-22q0 -14 -9 -23.5t-24 -9.5zM882 351q-25 0 -43 18t-18 42q0 25 18 42.5t43 17.5t43 -17.5t18 -42.5q0 -24 -18 -42t-43 -18z" />
    <glyph glyph-name="uni1000ED.small" unicode="&#x3f;&#x20de;&#x25a0;" horiz-adv-x="1795" 
d="M416 23q-216 0 -216 215v964q0 106 55 161t161 55h963q106 0 161 -55t55 -161v-964q0 -105 -55 -160t-161 -55h-963zM890 557q16 0 25.5 9.5t9.5 24.5v24q0 37 19.5 63.5t69.5 61.5q66 48 94.5 88.5t28.5 99.5q0 81 -64.5 132t-163.5 51q-94 0 -155.5 -45.5t-72.5 -111.5
q-3 -16 -3 -33q0 -15 9.5 -24t23.5 -9q28 0 41 33q6 54 48.5 90t105.5 36q70 0 112 -34.5t42 -88.5q0 -42 -23.5 -73t-84.5 -73q-52 -36 -75 -72t-23 -86v-27q0 -17 10 -26.5t26 -9.5zM892 337q27 0 46.5 19t19.5 45q0 27 -19.5 46t-46.5 19q-26 0 -45.5 -19t-19.5 -46
q0 -26 19.5 -45t45.5 -19z" />
    <glyph glyph-name="uni1000EE.small" unicode="&#x21;&#x20de;" horiz-adv-x="1795" 
d="M416 23q-216 0 -216 215v964q0 106 55 161t161 55h963q106 0 161 -55t55 -161v-964q0 -105 -55 -160t-161 -55h-963zM418 91h959q72 0 111 38.5t39 112.5v957q0 74 -39 112.5t-111 38.5h-959q-74 0 -112 -38.5t-38 -112.5v-957q0 -151 150 -151zM897 582q-16 0 -26 11
t-10 30l-7 424q0 19 12 30.5t31 11.5t31 -11.5t12 -30.5l-7 -424q0 -41 -36 -41zM897 351q-25 0 -43 18t-18 42q0 25 18 42.5t43 17.5t43 -17.5t18 -42.5q0 -24 -18 -42t-43 -18z" />
    <glyph glyph-name="uni1000EF.small" unicode="&#x21;&#x20de;&#x25a0;" horiz-adv-x="1795" 
d="M416 23q-216 0 -216 215v964q0 106 55 161t161 55h963q106 0 161 -55t55 -161v-964q0 -105 -55 -160t-161 -55h-963zM897 585q39 0 41 45l7 426q1 22 -12.5 35.5t-35.5 13.5t-35.5 -13.5t-12.5 -34.5l7 -427q1 -21 12 -33t29 -12zM897 337q27 0 46.5 19t19.5 45
q0 27 -19.5 46t-46.5 19q-26 0 -45.5 -19t-19.5 -46q0 -26 19.5 -45t45.5 -19z" />
    <glyph glyph-name="uni1000F1.small" unicode="&#x2717;&#x20de;&#x25a0;" horiz-adv-x="1795" 
d="M416 23q-216 0 -216 215v964q0 106 55 161t161 55h963q106 0 161 -55t55 -161v-964q0 -105 -55 -160t-161 -55h-963zM604 391q16 0 29 12l264 265l265 -265q12 -12 29 -12q16 0 26.5 10.5t10.5 25.5q0 16 -12 28l-266 266l267 266q11 12 11 28t-10.5 26t-26.5 10t-28 -12
l-266 -265l-265 264q-12 13 -28 13t-26.5 -10.5t-10.5 -25.5q0 -16 12 -28l265 -266l-265 -266q-12 -12 -12 -28q0 -15 10.5 -25.5t26.5 -10.5z" />
    <glyph glyph-name="uni1000F3.small" unicode="&#x2713;&#x20de;&#x25a0;" horiz-adv-x="1795" 
d="M416 23q-216 0 -216 215v964q0 106 55 161t161 55h963q106 0 161 -55t55 -161v-964q0 -105 -55 -160t-161 -55h-963zM823 332q23 0 36 21l429 666q10 15 10 28q0 15 -11.5 25t-25.5 10q-20 0 -32 -21l-408 -636l-230 272q-13 17 -33 17q-14 0 -25 -10t-11 -26t11 -30
l253 -296q16 -20 37 -20z" />
    <glyph glyph-name="uni1000F6.small" unicode="&#x25b2;&#x20de;" horiz-adv-x="1795" 
d="M416 23q-216 0 -216 215v964q0 106 55 161t161 55h963q106 0 161 -55t55 -161v-964q0 -105 -55 -160t-161 -55h-963zM418 91h959q72 0 111 38.5t39 112.5v957q0 74 -39 112.5t-111 38.5h-959q-74 0 -112 -38.5t-38 -112.5v-957q0 -151 150 -151zM1172 515h-549
q-22 0 -30.5 20t3.5 41l268 440q12 20 34.5 20.5t34.5 -20.5l265 -440q13 -21 4.5 -41t-30.5 -20z" />
    <glyph glyph-name="uni1000F7.small" unicode="&#x25b2;&#x20de;&#x25a0;" horiz-adv-x="1795" 
d="M416 23q-216 0 -216 215v964q0 106 55 161t161 55h963q106 0 161 -55t55 -161v-964q0 -105 -55 -160t-161 -55h-963zM1216 503q23 0 31.5 20.5t-4.5 43.5l-277 462q-13 22 -36.5 22t-37.5 -22l-280 -462q-13 -22 -3.5 -43t31.5 -21h576z" />
    <glyph glyph-name="uni1000F8.small" unicode="&#x25bc;&#x20de;" horiz-adv-x="1795" 
d="M416 23q-216 0 -216 215v964q0 106 55 161t161 55h963q106 0 161 -55t55 -161v-964q0 -105 -55 -160t-161 -55h-963zM418 91h959q72 0 111 38.5t39 112.5v957q0 74 -39 112.5t-111 38.5h-959q-74 0 -112 -38.5t-38 -112.5v-957q0 -151 150 -151zM1172 945q22 0 30.5 -20
t-4.5 -41l-265 -440q-13 -21 -35 -21t-34 21l-268 440q-12 20 -3.5 40.5t30.5 20.5h549z" />
    <glyph glyph-name="uni1000F9.small" unicode="&#x25bc;&#x20de;&#x25a0;" horiz-adv-x="1795" 
d="M416 23q-216 0 -216 215v964q0 106 55 161t161 55h963q106 0 161 -55t55 -161v-964q0 -105 -55 -160t-161 -55h-963zM1216 956h-576q-22 0 -31.5 -21t3.5 -42l280 -463q14 -21 37.5 -21t36.5 21l277 463q13 22 4.5 42.5t-31.5 20.5z" />
    <glyph glyph-name="uni1000FA.small" unicode="&#x25c0;&#x20de;" horiz-adv-x="1795" 
d="M416 23q-216 0 -216 215v964q0 106 55 161t161 55h963q106 0 161 -55t55 -161v-964q0 -105 -55 -160t-161 -55h-963zM418 91h959q72 0 111 38.5t39 112.5v957q0 74 -39 112.5t-111 38.5h-959q-74 0 -112 -38.5t-38 -112.5v-957q0 -151 150 -151zM1121 996v-549
q0 -22 -20 -30.5t-41 3.5l-441 265q-20 13 -20 35t20 35l441 267q20 12 40.5 4t20.5 -30z" />
    <glyph glyph-name="uni1000FB.small" unicode="&#x25c0;&#x20de;&#x25a0;" horiz-adv-x="1795" 
d="M416 23q-216 0 -216 215v964q0 106 55 161t161 55h963q106 0 161 -55t55 -161v-964q0 -105 -55 -160t-161 -55h-963zM1146 1009q0 22 -21 31.5t-42 -3.5l-463 -280q-21 -14 -21.5 -37t21.5 -37l463 -277q22 -13 42.5 -4.5t20.5 31.5v576z" />
    <glyph glyph-name="uni1000FC.small" unicode="&#x25b6;&#x20de;" horiz-adv-x="1795" 
d="M416 23q-216 0 -216 215v964q0 106 55 161t161 55h963q106 0 161 -55t55 -161v-964q0 -105 -55 -160t-161 -55h-963zM418 91h959q72 0 111 38.5t39 112.5v957q0 74 -39 112.5t-111 38.5h-959q-74 0 -112 -38.5t-38 -112.5v-957q0 -151 150 -151zM674 996q0 22 20.5 30
t40.5 -4l440 -267q21 -13 21 -35t-21 -35l-440 -265q-21 -12 -41 -3.5t-20 30.5v549z" />
    <glyph glyph-name="uni1000FD.small" unicode="&#x25b6;&#x20de;&#x25a0;" horiz-adv-x="1795" 
d="M416 23q-216 0 -216 215v964q0 106 55 161t161 55h963q106 0 161 -55t55 -161v-964q0 -105 -55 -160t-161 -55h-963zM710 1009v-576q0 -23 21 -31.5t43 4.5l462 277q22 13 22 37t-22 37l-462 280q-22 13 -43 3.5t-21 -31.5z" />
    <glyph glyph-name=".notdef" horiz-adv-x="2048" 
d="M100 1611v339h1848v-339h-1848zM100 1190v339h1848v-339h-1848zM100 769v339h1848v-339h-1848zM100 348v339h1848v-339h-1848zM100 -73v339h1848v-339h-1848zM100 -494v339h1848v-339h-1848z" />
    <glyph glyph-name=".null" horiz-adv-x="0" 
 />
    <glyph glyph-name="nonmarkingreturn" unicode="&#x2029;" horiz-adv-x="0" 
 />
    <glyph glyph-name="nonmarkingreturn" unicode="&#x2028;" horiz-adv-x="0" 
 />
    <glyph glyph-name="space" unicode=" " horiz-adv-x="523" 
 />
    <glyph glyph-name="exclam" unicode="!" horiz-adv-x="590" 
d="M253 1443h84l-4 -1016h-76zM295 -9q-34 0 -55.5 21.5t-21.5 55.5q0 33 21.5 54.5t55.5 21.5q33 0 54.5 -21.5t21.5 -54.5q0 -34 -21.5 -55.5t-54.5 -21.5z" />
    <glyph glyph-name="quotedbl" unicode="&#x22;" horiz-adv-x="678" 
d="M239 975h-74v468h74v-468zM513 975h-74v468h74v-468z" />
    <glyph glyph-name="numbersign" unicode="#" horiz-adv-x="1343" 
d="M714 0l91 440h-403l-91 -440h-70l92 440h-267l13 67h268l87 436h-276l14 67h275l91 438h70l-91 -438h403l92 438h69l-91 -438h291l-14 -67h-290l-87 -436h298l-14 -67h-298l-92 -440h-70zM416 507h404l87 436h-404z" />
    <glyph glyph-name="dollar" unicode="$" horiz-adv-x="1311" 
d="M628 -169v177q-201 9 -333.5 118t-139.5 278h78q9 -137 116 -226.5t279 -98.5v629l-44 10q-197 46 -294 132t-97 221q0 152 125 254t310 110v159h60v-159q186 -8 311 -110t131 -252h-77q-7 121 -109.5 202t-255.5 89v-594l65 -15q204 -48 303 -135.5t99 -231.5
q0 -164 -131 -268.5t-336 -111.5v-177h-60zM599 791l29 -7v580q-155 -8 -256.5 -90t-101.5 -200q0 -105 81 -174.5t248 -108.5zM738 682l-50 11v-614q179 7 284.5 92t105.5 214q0 113 -80 184t-260 113z" />
    <glyph glyph-name="percent" unicode="%" horiz-adv-x="1685" 
d="M354 813q-131 0 -207.5 87t-76.5 235t76.5 235t207.5 87t207.5 -87t76.5 -235q0 -149 -76.5 -235.5t-207.5 -86.5zM411 0h-78l941 1443h77zM354 876q98 0 155 70t57 189t-57.5 189.5t-154.5 70.5q-98 0 -155 -70t-57 -190t57 -189.5t155 -69.5zM1331 -10
q-131 0 -207 86.5t-76 235.5q0 148 76.5 235t206.5 87t206.5 -87t76.5 -235q0 -149 -76 -235.5t-207 -86.5zM1331 52q98 0 155 70t57 189t-57.5 189.5t-154.5 70.5q-98 0 -155 -70t-57 -190q0 -119 57 -189t155 -70z" />
    <glyph glyph-name="ampersand" unicode="&#x26;" horiz-adv-x="1492" 
d="M1272 0l-191 199q-94 -103 -226 -162t-269 -59q-201 0 -328.5 109t-127.5 279q0 230 277 379q1 0 50.5 26.5t52.5 27.5q-125 127 -172 205t-47 159q0 128 100 215.5t245 87.5t241 -85.5t96 -215.5q0 -105 -82.5 -197t-267.5 -185l452 -478q57 91 90 202.5t33 220.5v73h76
v-72q0 -123 -39.5 -251t-106.5 -224l246 -254h-102zM577 831q166 81 243 162.5t77 169.5q0 100 -75.5 168t-185.5 68t-189 -70.5t-79 -168.5q0 -69 43.5 -138t165.5 -191zM452 692q-243 -128 -243 -324q0 -138 106.5 -229t275.5 -91q117 0 239.5 56t198.5 144l-472 499
q-1 0 -26.5 -13.5t-51.5 -27t-27 -14.5z" />
    <glyph glyph-name="quotesingle" unicode="'" horiz-adv-x="404" 
d="M239 975h-74v468h74v-468z" />
    <glyph glyph-name="parenleft" unicode="(" horiz-adv-x="710" 
d="M246 603q0 253 71 492.5t203 410.5h73q-121 -159 -194.5 -411t-73.5 -492q0 -241 73.5 -493t194.5 -411h-73q-132 171 -203 410.5t-71 493.5z" />
    <glyph glyph-name="parenright" unicode=")" horiz-adv-x="710" 
d="M464 603q0 -254 -71 -493.5t-203 -410.5h-73q121 160 194.5 412t73.5 492q0 241 -73.5 493t-194.5 410h73q132 -171 203 -410t71 -493z" />
    <glyph glyph-name="asterisk" unicode="*" horiz-adv-x="897" 
d="M722 898l-247 165l6 -289h-65l6 289l-247 -165l-31 54l251 156l-251 156l31 55l247 -166l-6 290h65l-6 -290l247 166l31 -54l-251 -156l251 -156z" />
    <glyph glyph-name="plus" unicode="+" horiz-adv-x="1311" 
d="M692 539v-451h-74v451h-417v73h417v451h74v-451h418v-73h-418z" />
    <glyph glyph-name="comma" unicode="," horiz-adv-x="573" 
d="M206 -326h-60l101 483h90z" />
    <glyph glyph-name="hyphen" unicode="&#x2011;" horiz-adv-x="986" 
d="M821 547h-656v73h656v-73z" />
    <glyph glyph-name="hyphen" unicode="-" horiz-adv-x="986" 
d="M821 547h-656v73h656v-73z" />
    <glyph glyph-name="period" unicode="." horiz-adv-x="573" 
d="M287 -6q-31 0 -52.5 21t-21.5 52t21.5 52.5t52.5 21.5t52.5 -21.5t21.5 -52.5t-21.5 -52t-52.5 -21z" />
    <glyph glyph-name="slash" unicode="/" horiz-adv-x="668" 
d="M119 -301h-70l498 1807h72z" />
    <glyph glyph-name="zero" unicode="0" horiz-adv-x="1271" 
d="M636 -24q-236 0 -371 199.5t-135 546.5t135.5 546t370.5 199t370 -199.5t135 -546.5t-135 -546t-370 -199zM636 47q197 0 311 181t114 494t-114 493t-311 180t-311.5 -180.5t-114.5 -492.5q0 -313 114.5 -494t311.5 -181z" />
    <glyph glyph-name="one" unicode="1" horiz-adv-x="857" 
d="M498 0v1353h-7q-38 -22 -102.5 -63.5t-164 -107.5t-121.5 -80v86q303 201 395 255h79v-1443h-79z" />
    <glyph glyph-name="two" unicode="2" horiz-adv-x="1203" 
d="M153 1055q4 180 128.5 296t314.5 116q184 0 308.5 -113.5t124.5 -282.5q0 -115 -65.5 -225t-249.5 -303l-441 -463v-7h808v-73h-921v60l507 539q166 176 223.5 271t57.5 196q0 141 -101 235.5t-254 94.5q-155 0 -257 -95.5t-106 -245.5h-77z" />
    <glyph glyph-name="three" unicode="3" horiz-adv-x="1228" 
d="M427 714v70h161q162 0 262.5 86t100.5 223q0 126 -101 214.5t-249 88.5q-149 0 -250 -84t-110 -216h-77q9 161 132 266t308 105q184 0 306 -107t121 -261q0 -133 -77 -222.5t-212 -119.5v-7q164 -17 260.5 -113t96.5 -247q0 -178 -141 -296t-351 -118q-196 0 -333.5 111
t-141.5 273h78q4 -129 120.5 -221t276.5 -92q176 0 294 98.5t118 246.5q0 150 -114.5 236t-314.5 86h-163z" />
    <glyph glyph-name="four" unicode="4" horiz-adv-x="1304" 
d="M875 0v361h-753v73q122 193 258.5 387t461.5 627h111v-1015h229v-72h-229v-361h-78zM211 439v-6h664v931h-6q-315 -419 -434.5 -588.5t-223.5 -336.5z" />
    <glyph glyph-name="five" unicode="5" horiz-adv-x="1240" 
d="M619 -24q-185 0 -320.5 110.5t-146.5 270.5h79q10 -127 124.5 -218t263.5 -91q176 0 294.5 117t118.5 292q0 171 -117.5 286t-291.5 115q-119 0 -221.5 -57t-148.5 -149h-80l77 791h765v-72h-699l-57 -613h7q52 78 152 124.5t217 46.5q204 0 340 -133.5t136 -337.5
q0 -209 -139.5 -345.5t-352.5 -136.5z" />
    <glyph glyph-name="six" unicode="6" horiz-adv-x="1265" 
d="M657 -24q-110 0 -203 41t-166 123.5t-114.5 221.5t-41.5 322q0 361 144 572t388 211q177 0 299 -97.5t146 -257.5h-80q-22 126 -123 204.5t-241 78.5q-220 0 -340.5 -204t-114.5 -570h7q40 144 164 234t283 90q205 0 341.5 -136.5t136.5 -340.5q0 -212 -138.5 -352
t-346.5 -140zM656 48q173 0 289.5 120t116.5 298q0 174 -117 291t-290 117q-169 0 -291.5 -116t-122.5 -277q0 -184 119.5 -308.5t295.5 -124.5z" />
    <glyph glyph-name="seven" unicode="7" horiz-adv-x="1154" 
d="M265 0l692 1364v7h-837v72h920v-76l-685 -1367h-90z" />
    <glyph glyph-name="eight" unicode="8" horiz-adv-x="1276" 
d="M637 -24q-223 0 -361 115.5t-138 302.5q0 139 93 241.5t242 127.5v7q-128 25 -205 112.5t-77 208.5q0 165 125 270.5t321 105.5q197 0 322.5 -105.5t125.5 -270.5q0 -117 -78 -206t-203 -115v-7q148 -25 241.5 -127.5t93.5 -241.5q0 -187 -139 -302.5t-363 -115.5z
M637 799q163 0 266 80.5t103 207.5q0 136 -103 222.5t-265 86.5q-161 0 -265 -86.5t-104 -222.5q0 -127 103.5 -207.5t264.5 -80.5zM637 47q187 0 304.5 97.5t117.5 253.5q0 147 -116.5 238t-304.5 91q-187 0 -304 -91.5t-117 -237.5q0 -156 117 -253.5t303 -97.5z" />
    <glyph glyph-name="nine" unicode="9" horiz-adv-x="1265" 
d="M602 -24q-178 0 -299 98t-147 257h81q23 -125 121 -203.5t244 -78.5q212 0 336 194.5t117 578.5h-6q-38 -140 -164 -232t-284 -92q-206 0 -341.5 135t-135.5 337q0 214 137.5 355.5t347.5 141.5q111 0 203.5 -40.5t165.5 -123t114 -221.5t41 -323q0 -363 -141 -573
t-390 -210zM610 569q170 0 292 115.5t122 271.5q0 185 -118.5 312t-296.5 127q-174 0 -290 -121.5t-116 -301.5q0 -170 115 -286.5t292 -116.5z" />
    <glyph glyph-name="colon" unicode=":" horiz-adv-x="573" 
d="M287 876q-31 0 -52.5 21.5t-21.5 52.5q0 32 21.5 53t52.5 21t52.5 -21.5t21.5 -52.5t-21.5 -52.5t-52.5 -21.5zM287 -6q-31 0 -52.5 21t-21.5 52t21.5 52.5t52.5 21.5t52.5 -21.5t21.5 -52.5t-21.5 -52t-52.5 -21z" />
    <glyph glyph-name="semicolon" unicode=";" horiz-adv-x="573" 
d="M287 876q-31 0 -52.5 21.5t-21.5 52.5q0 32 21.5 53t52.5 21t52.5 -21.5t21.5 -52.5t-21.5 -52.5t-52.5 -21.5zM206 -326h-60l101 483h90z" />
    <glyph glyph-name="less" unicode="&#x3c;" horiz-adv-x="1311" 
d="M1110 995l-814 -413v-6l814 -417v-84l-909 467v69l909 467v-83z" />
    <glyph glyph-name="equal" unicode="=" horiz-adv-x="1311" 
d="M1104 753h-897v70h897v-70zM1104 328h-897v70h897v-70z" />
    <glyph glyph-name="greater" unicode="&#x3e;" horiz-adv-x="1311" 
d="M201 158l814 413v6l-814 417v84l909 -467v-69l-909 -467v83z" />
    <glyph glyph-name="question" unicode="?" horiz-adv-x="979" 
d="M84 1096q10 158 119.5 261t277.5 103q169 0 280 -101t111 -253q0 -102 -50 -180t-163 -157q-102 -70 -138.5 -126.5t-36.5 -144.5v-90h-77v98q-1 99 42 167t153 144q104 73 146.5 137t42.5 149q0 125 -89 205.5t-223 80.5q-130 0 -218.5 -80.5t-100.5 -212.5h-76zM456 -9
q-33 0 -55 21.5t-22 55.5q0 33 22 54.5t55 21.5t54.5 -21.5t21.5 -54.5q0 -34 -21.5 -55.5t-54.5 -21.5z" />
    <glyph glyph-name="at" unicode="@" horiz-adv-x="1858" 
d="M951 1432q174 0 322.5 -55.5t252.5 -154t163 -239t59 -304.5q0 -240 -84 -374t-234 -134q-100 0 -163.5 55t-71.5 149h-7q-37 -97 -107 -148t-165 -51q-155 0 -252.5 116.5t-97.5 301.5t98 302t252 117q91 0 164.5 -51.5t102.5 -134.5h8v165h71v-560q0 -97 45 -147
t131 -50q115 0 178.5 117t63.5 328q0 150 -54 278.5t-150 218.5t-232.5 141t-296.5 51q-213 0 -384 -98t-267.5 -272.5t-96.5 -392.5q0 -227 94.5 -403t265.5 -273t392 -97q214 0 328 38v-64q-117 -37 -328 -37q-241 0 -428 105t-289.5 295.5t-102.5 436.5q0 178 61.5 331.5
t169 262t260 170t329.5 61.5zM923 947q-122 0 -202.5 -100.5t-80.5 -254.5q0 -157 78 -253t205 -96q121 0 194 98t73 261q0 160 -72 252.5t-195 92.5z" />
    <glyph glyph-name="A" unicode="A" horiz-adv-x="1341" 
d="M1175 0l-180 481h-649l-179 -481h-86l550 1443h80l549 -1443h-85zM667 1336l-295 -784h597l-295 784h-7z" />
    <glyph glyph-name="B" unicode="B" horiz-adv-x="1284" 
d="M672 0h-485v1443h474q201 0 317 -94t116 -257q0 -131 -77 -217.5t-208 -110.5v-7q160 -14 260.5 -113.5t100.5 -251.5q0 -186 -129.5 -289t-368.5 -103zM266 1371v-582h369q176 0 277.5 76.5t101.5 217.5q0 134 -98 211t-265 77h-385zM266 72h399q205 0 314.5 83.5
t109.5 239.5q0 153 -116 238t-325 85h-382v-646z" />
    <glyph glyph-name="C" unicode="C" horiz-adv-x="1441" 
d="M760 -24q-293 0 -463 200t-170 546q0 343 170.5 544t462.5 201q216 0 377.5 -135t186.5 -337h-80q-17 111 -86 202.5t-174 143.5t-224 52q-252 0 -402.5 -182.5t-150.5 -488.5q0 -307 150 -489.5t403 -182.5q190 0 325.5 104t158.5 268h80q-23 -199 -179.5 -322.5
t-384.5 -123.5z" />
    <glyph glyph-name="D" unicode="D" horiz-adv-x="1451" 
d="M187 1443h449q334 0 511 -192t177 -529q0 -338 -176.5 -530t-511.5 -192h-449v1443zM267 1370v-1297h365q292 0 451.5 172.5t159.5 475.5t-159.5 476t-451.5 173h-365z" />
    <glyph glyph-name="E" unicode="E" horiz-adv-x="1166" 
d="M1028 73v-73h-841v1443h841v-73h-762v-594h726v-72h-726v-631h762z" />
    <glyph glyph-name="F" unicode="F" horiz-adv-x="1132" 
d="M266 0h-79v1443h830v-73h-751v-603h691v-72h-691v-695z" />
    <glyph glyph-name="G" unicode="G" horiz-adv-x="1476" 
d="M1347 560q0 -269 -158.5 -426.5t-428.5 -157.5q-284 0 -458.5 205.5t-174.5 540.5t171.5 540t454.5 205q220 0 377.5 -120t196.5 -315h-80q-44 167 -176 264t-318 97q-247 0 -396.5 -184.5t-149.5 -486.5q0 -300 152.5 -486t401.5 -186q235 0 371.5 137t136.5 370v71
h-486v71h564v-139z" />
    <glyph glyph-name="H" unicode="H" horiz-adv-x="1445" 
d="M1258 0h-79v705h-913v-705h-79v1443h79v-666h913v666h79v-1443z" />
    <glyph glyph-name="I" unicode="I" horiz-adv-x="453" 
d="M266 0h-79v1443h79v-1443z" />
    <glyph glyph-name="J" unicode="J" horiz-adv-x="1070" 
d="M100 320h79q7 -118 93 -194t213 -76q150 0 234.5 90t84.5 252v1051h79v-1062q0 -187 -107 -296t-290 -109q-165 0 -273.5 96.5t-112.5 247.5z" />
    <glyph glyph-name="K" unicode="&#x212a;" horiz-adv-x="1260" 
d="M266 0h-79v1443h79v-805h7l750 805h100l-581 -622l647 -821h-102l-600 766l-221 -238v-528z" />
    <glyph glyph-name="K" unicode="K" horiz-adv-x="1260" 
d="M266 0h-79v1443h79v-805h7l750 805h100l-581 -622l647 -821h-102l-600 766l-221 -238v-528z" />
    <glyph glyph-name="L" unicode="L" horiz-adv-x="1106" 
d="M1023 73v-73h-836v1443h79v-1370h757z" />
    <glyph glyph-name="M" unicode="M" horiz-adv-x="1724" 
d="M1537 0h-77v1276h-6l-554 -1276h-76l-554 1276h-7v-1276h-76v1443h89l582 -1340h8l580 1340h91v-1443z" />
    <glyph glyph-name="N" unicode="N" horiz-adv-x="1460" 
d="M266 0h-79v1443h82l918 -1297h7v1297h79v-1443h-75l-925 1304h-7v-1304z" />
    <glyph glyph-name="O" unicode="O" horiz-adv-x="1537" 
d="M768 1467q297 0 469.5 -200t172.5 -545t-172 -545.5t-470 -200.5t-469.5 200t-171.5 546q0 344 172.5 544.5t468.5 200.5zM768 1393q-257 0 -409 -182t-152 -489t152 -489.5t409 -182.5t409.5 183t152.5 489q0 307 -152.5 489t-409.5 182z" />
    <glyph glyph-name="P" unicode="P" horiz-adv-x="1234" 
d="M187 1443h469q211 0 337.5 -118t126.5 -314q0 -195 -127 -312t-337 -117h-390v-582h-79v1443zM266 1371v-717h377q182 0 289.5 96.5t107.5 260.5q0 167 -106.5 263.5t-290.5 96.5h-377z" />
    <glyph glyph-name="Q" unicode="Q" horiz-adv-x="1537" 
d="M769 -24q-298 0 -470 199.5t-172 546.5q0 344 172.5 544.5t469.5 200.5q296 0 468.5 -200.5t172.5 -544.5q0 -225 -74.5 -392t-213.5 -256l183 -251h-92l-157 214q-127 -61 -287 -61zM769 50q134 0 241 52l-197 270h91l170 -232q123 81 189 231.5t66 350.5
q0 307 -152 489t-408 182q-257 0 -409.5 -182t-152.5 -489q0 -308 152.5 -490t409.5 -182z" />
    <glyph glyph-name="R" unicode="R" horiz-adv-x="1271" 
d="M266 616v-616h-79v1443h471q214 0 338.5 -110.5t124.5 -301.5q0 -155 -88.5 -261.5t-245.5 -138.5l371 -631h-93l-362 619q-24 -3 -50 -3h-387zM266 1371v-682h387q181 0 284.5 90.5t103.5 249.5t-104.5 250.5t-285.5 91.5h-385z" />
    <glyph glyph-name="S" unicode="S" horiz-adv-x="1255" 
d="M116 373h79q11 -140 138.5 -232t308.5 -92t299 93t118 232q0 114 -88.5 191.5t-277.5 123.5l-139 34q-212 52 -306 136t-94 222q0 165 134 275.5t340 110.5q201 0 337 -104t147 -258h-79q-15 124 -127.5 206.5t-279.5 82.5q-169 0 -280 -90t-111 -221q0 -107 82 -174
t269 -112l131 -32q222 -54 322.5 -146.5t100.5 -238.5q0 -177 -140 -290.5t-363 -113.5q-142 0 -258.5 50.5t-186 141.5t-76.5 205z" />
    <glyph glyph-name="T" unicode="T" horiz-adv-x="1256" 
d="M668 0h-79v1370h-509v73h1096v-73h-508v-1370z" />
    <glyph glyph-name="U" unicode="U" horiz-adv-x="1451" 
d="M266 1443v-934q0 -204 126 -327.5t333 -123.5t333.5 123.5t126.5 327.5v934h80v-937q0 -239 -147 -380.5t-393 -141.5t-392.5 141.5t-146.5 380.5v937h80z" />
    <glyph glyph-name="V" unicode="V" horiz-adv-x="1341" 
d="M711 0h-80l-550 1443h84l502 -1335h7l502 1335h85z" />
    <glyph glyph-name="W" unicode="W" horiz-adv-x="1922" 
d="M958 1293l-383 -1293h-70l-403 1443h82l354 -1305h7l379 1305h74l379 -1305h6l355 1305h82l-403 -1443h-70l-383 1293h-6z" />
    <glyph glyph-name="X" unicode="X" horiz-adv-x="1334" 
d="M102 0l517 722l-516 721h96l467 -656h5l469 656h92l-518 -722l515 -721h-95l-466 655h-5l-470 -655h-91z" />
    <glyph glyph-name="Y" unicode="Y" horiz-adv-x="1291" 
d="M686 0h-80v629l-524 814h92l468 -731h8l467 731h92l-523 -814v-629z" />
    <glyph glyph-name="Z" unicode="Z" horiz-adv-x="1292" 
d="M131 0v62l923 1301v7h-894v73h997v-62l-921 -1301v-7h925v-73h-1030z" />
    <glyph glyph-name="bracketleft" unicode="[" horiz-adv-x="710" 
d="M262 1506h364v-65h-289v-1676h300v-66h-375v1807z" />
    <glyph glyph-name="backslash" unicode="\" horiz-adv-x="668" 
d="M549 -301l-502 1807h73l501 -1807h-72z" />
    <glyph glyph-name="bracketright" unicode="]" horiz-adv-x="710" 
d="M448 -301h-364v66h289v1676h-300v65h375v-1807z" />
    <glyph glyph-name="asciicircum" unicode="^" horiz-adv-x="897" 
d="M442 1310l-242 -482h-79l285 563h85l288 -563h-79l-245 482h-13z" />
    <glyph glyph-name="underscore" unicode="_" horiz-adv-x="924" 
d="M929 -205h-934v63h934v-63z" />
    <glyph glyph-name="grave" unicode="`" horiz-adv-x="1024" 
d="M586 1228l-222 321h94l202 -321h-74z" />
    <glyph glyph-name="a" unicode="a" horiz-adv-x="1118" 
d="M477 -17q-160 0 -260 85t-100 224q0 137 98 215.5t284 91.5l371 28v105q0 141 -81 216t-226 75q-129 0 -216.5 -55.5t-108.5 -156.5h-78q21 131 131 206.5t274 75.5q179 0 280.5 -94t101.5 -266v-733h-74v220h-8q-45 -109 -149.5 -173t-238.5 -64zM486 53
q161 0 272.5 101t111.5 247v160l-359 -27q-156 -11 -236 -72.5t-80 -168.5t81 -173.5t210 -66.5z" />
    <glyph glyph-name="b" unicode="b" horiz-adv-x="1245" 
d="M668 -17q-139 0 -246.5 77.5t-151.5 210.5h-7v-271h-75v1506h77v-692h7q46 129 152.5 204t243.5 75q204 0 329 -152.5t125 -400.5t-126 -402.5t-328 -154.5zM657 1023q-175 0 -284 -134t-109 -349q0 -216 109.5 -351t283.5 -135t280 134t106 352t-105.5 350.5
t-280.5 132.5z" />
    <glyph glyph-name="c" unicode="c" horiz-adv-x="1144" 
d="M1025 775h-77q-30 112 -124.5 180t-225.5 68q-181 0 -288.5 -130.5t-107.5 -350.5q0 -223 107.5 -355.5t288.5 -132.5q134 0 228 63.5t120 172.5h78q-27 -140 -141.5 -223.5t-284.5 -83.5q-218 0 -346.5 151t-128.5 408q0 253 128.5 402t346.5 149q167 0 284 -89
t143 -229z" />
    <glyph glyph-name="d" unicode="d" horiz-adv-x="1252" 
d="M584 -17q-205 0 -333 154t-128 401q0 246 128.5 400.5t332.5 154.5q137 0 243.5 -75.5t152.5 -204.5h7v693h77v-1506h-74v271h-8q-44 -132 -151.5 -210t-246.5 -78zM595 1023q-175 0 -284 -134.5t-109 -350.5t109 -350t284 -134t284.5 134.5t109.5 349.5t-109.5 350
t-284.5 135z" />
    <glyph glyph-name="e" unicode="e" horiz-adv-x="1179" 
d="M953 249h81q-40 -122 -156.5 -194t-275.5 -72q-220 0 -349.5 150t-129.5 404t129 405t347 151q211 0 334 -141t123 -382v-46h-854v-3q2 -213 111 -340.5t290 -127.5q127 0 221 53t129 143zM598 1023q-171 0 -278.5 -117.5t-116.5 -314.5h773q-1 196 -104 314t-274 118z
" />
    <glyph glyph-name="f" unicode="f" horiz-adv-x="688" 
d="M251 0v1009h-179v68h179v161q0 135 66 206t190 71q57 0 94 -9v-65q-30 6 -81 6q-93 0 -142.5 -54.5t-49.5 -155.5v-160h262v-68h-262v-1009h-77z" />
    <glyph glyph-name="g" unicode="g" horiz-adv-x="1235" 
d="M605 -391q-171 0 -284 69t-136 186h82q23 -84 115 -135t225 -51q169 0 271 87.5t102 233.5v281h-7q-44 -130 -148 -203t-245 -73q-206 0 -331.5 150t-125.5 394q0 243 126 394t331 151q138 0 246 -78.5t149 -208.5h7v271h75v-1088q0 -170 -124.5 -275t-327.5 -105z
M591 74q177 0 283.5 128.5t106.5 340.5q0 213 -108 346.5t-282 133.5q-176 0 -282.5 -131t-106.5 -343q0 -213 106.5 -344t282.5 -131z" />
    <glyph glyph-name="h" unicode="h" horiz-adv-x="1202" 
d="M188 0v1506h77v-657h7q47 116 147 180t235 64q176 0 277 -103.5t101 -285.5v-704h-77v683q0 163 -82 251.5t-234 88.5q-164 0 -269 -107.5t-105 -273.5v-642h-77z" />
    <glyph glyph-name="i" unicode="i" horiz-adv-x="449" 
d="M225 1320q-28 0 -48 19.5t-20 47.5t20 48t48 20t47.5 -20t19.5 -48t-19.5 -47.5t-47.5 -19.5zM186 0v1077h77v-1077h-77z" />
    <glyph glyph-name="j" unicode="j" horiz-adv-x="449" 
d="M225 1320q-28 0 -47.5 19.5t-19.5 47.5t19.5 48t47.5 20t48 -20t20 -48t-20 -47.5t-48 -19.5zM263 1077v-1165q0 -144 -67 -209.5t-199 -65.5h-18v69h16q99 0 145 48t46 154v1169h77z" />
    <glyph glyph-name="k" unicode="k" horiz-adv-x="1065" 
d="M272 527l603 550h101l-504 -463l514 -614h-100l-474 565l-147 -135v-430h-77v1506h77v-979h7z" />
    <glyph glyph-name="l" unicode="l" horiz-adv-x="453" 
d="M188 0v1506h77v-1506h-77z" />
    <glyph glyph-name="m" unicode="m" horiz-adv-x="1760" 
d="M178 0v1077h75v-228h7q34 112 121.5 178t202.5 66q118 0 201 -64.5t115 -179.5h7q39 112 131.5 178t213.5 66q159 0 248.5 -97t89.5 -269v-727h-77v709q0 149 -72.5 231.5t-204.5 82.5q-140 0 -227 -99t-87 -254v-670h-77v707q0 142 -76.5 229t-201.5 87
q-131 0 -221.5 -107.5t-90.5 -264.5v-651h-77z" />
    <glyph glyph-name="n" unicode="n" horiz-adv-x="1189" 
d="M178 0v1077h75v-228h7q47 115 146 179.5t233 64.5q179 0 279.5 -103t100.5 -286v-704h-77v683q0 163 -81.5 251.5t-235.5 88.5q-161 0 -265.5 -107.5t-104.5 -273.5v-642h-77z" />
    <glyph glyph-name="o" unicode="o" horiz-adv-x="1206" 
d="M603 -17q-220 0 -350 150t-130 405t130 405t350 150t350 -150t130 -405t-130 -405t-350 -150zM603 54q184 0 292.5 131.5t108.5 352.5q0 222 -108.5 353.5t-292.5 131.5t-292.5 -131t-108.5 -354q0 -222 108.5 -353t292.5 -131z" />
    <glyph glyph-name="p" unicode="p" horiz-adv-x="1235" 
d="M658 1093q203 0 328.5 -153.5t125.5 -401.5t-126 -401.5t-328 -153.5q-138 0 -244 75t-152 203h-7v-614h-77v1430h73v-274h7q47 133 154 211.5t246 78.5zM647 54q174 0 280 133t106 351t-106 351.5t-280 133.5q-175 0 -284.5 -135t-109.5 -350q0 -214 110 -349t284 -135z
" />
    <glyph glyph-name="q" unicode="q" horiz-adv-x="1242" 
d="M583 1093q139 0 247 -78.5t153 -211.5h8v274h73v-1430h-77v614h-7q-48 -129 -153.5 -203.5t-243.5 -74.5q-204 0 -332 154.5t-128 401.5q0 246 128 400t332 154zM594 54q175 0 284.5 134.5t109.5 349.5t-109 350t-284 135t-284 -134.5t-109 -350.5t108.5 -350t283.5 -134
z" />
    <glyph glyph-name="r" unicode="r" horiz-adv-x="743" 
d="M178 0v1077h75v-201h7q31 100 112.5 158.5t190.5 58.5q67 0 119 -15v-77q-52 18 -126 18q-128 0 -214.5 -98t-86.5 -244v-677h-77z" />
    <glyph glyph-name="s" unicode="s" horiz-adv-x="1040" 
d="M154 803q0 123 109 206.5t262 83.5t257.5 -72.5t123.5 -193.5h-76q-18 90 -101.5 144t-203.5 54t-207 -63.5t-87 -156.5q0 -79 60 -126.5t189 -76.5l124 -30q166 -39 243 -105t77 -182q0 -131 -113.5 -216.5t-280.5 -85.5q-172 0 -283.5 75.5t-130.5 205.5h80
q22 -99 111.5 -156t224.5 -57q131 0 222 66t91 163q0 89 -62 140t-202 84l-133 31q-151 35 -222.5 98t-71.5 170z" />
    <glyph glyph-name="t" unicode="t" horiz-adv-x="696" 
d="M241 1357h77v-280h262v-68h-262v-745q0 -105 43 -151t142 -46q59 0 77 2v-68q-15 -3 -83 -3q-137 0 -196.5 59t-59.5 195v757h-178v68h178v280z" />
    <glyph glyph-name="u" unicode="u" horiz-adv-x="1189" 
d="M1011 1077v-1077h-73v227h-8q-39 -114 -138 -179t-235 -65q-177 0 -282 106t-105 284v704h77v-683q0 -158 87 -249t238 -91q162 0 262 105.5t100 274.5v643h77z" />
    <glyph glyph-name="v" unicode="v" horiz-adv-x="1035" 
d="M970 1077l-406 -1077h-93l-406 1077h83l366 -997h7l366 997h83z" />
    <glyph glyph-name="w" unicode="w" horiz-adv-x="1539" 
d="M1474 1077l-313 -1077h-91l-299 974h-7l-298 -974h-92l-309 1077h78l275 -985h7l299 985h88l299 -985h7l278 985h78z" />
    <glyph glyph-name="x" unicode="x" horiz-adv-x="1012" 
d="M508 483h-7l-343 -484h-91l395 546l-396 531h95l342 -469h8l341 469h92l-394 -529l396 -548h-94z" />
    <glyph glyph-name="y" unicode="y" horiz-adv-x="1036" 
d="M233 -368q-33 0 -39 1v69q10 -2 42 -2q74 0 121 47t94 168l26 70l-412 1092h84l366 -997h7l366 997h83l-418 -1111q-76 -202 -139.5 -268t-180.5 -66z" />
    <glyph glyph-name="z" unicode="z" horiz-adv-x="1052" 
d="M124 0v65l710 937v7h-710v68h803v-66l-711 -936v-7h712v-68h-804z" />
    <glyph glyph-name="braceleft" unicode="{" horiz-adv-x="710" 
d="M149 595q122 -6 174 -61t52 -168v-350q0 -133 54 -191.5t162 -58.5h46v-67h-50q-149 0 -218 73.5t-69 237.5v314q0 126 -48 174.5t-179 48.5v113q131 0 179 49.5t48 176.5v316q0 162 68 233t219 71h50v-67h-46q-112 0 -164 -54.5t-52 -186.5v-353q0 -113 -52 -168.5
t-174 -61.5v-20z" />
    <glyph glyph-name="bar" unicode="|" horiz-adv-x="668" 
d="M369 -301h-70v1807h70v-1807z" />
    <glyph glyph-name="braceright" unicode="}" horiz-adv-x="710" 
d="M561 610q-122 6 -174 61t-52 169v350q0 132 -54 190.5t-162 58.5h-46v67h50q150 0 218.5 -73t68.5 -237v-315q0 -126 48 -174.5t179 -48.5v-113q-131 0 -179 -49t-48 -176v-317q0 -161 -68 -232.5t-219 -71.5h-50v67h46q112 0 164 54.5t52 187.5v353q0 113 52 168.5
t174 61.5v19z" />
    <glyph glyph-name="asciitilde" unicode="~" horiz-adv-x="1311" 
d="M870 419q-64 0 -117.5 27.5t-136.5 101.5q-67 61 -105.5 82.5t-79.5 21.5q-72 0 -116.5 -59.5t-47.5 -159.5h-72q0 135 66 213t169 78q60 0 110 -27.5t132 -101.5q64 -58 109 -81t88 -23q73 0 121.5 64.5t53.5 164.5h72q0 -132 -72 -216.5t-174 -84.5z" />
    <glyph glyph-name="nonbreakingspace" unicode="&#xa0;" horiz-adv-x="523" 
 />
    <glyph glyph-name="exclamdown" unicode="&#xa1;" horiz-adv-x="590" 
d="M295 966q-33 0 -54.5 21.5t-21.5 54.5t21.5 55t54.5 22t54.5 -22t21.5 -55t-21 -54.5t-55 -21.5zM253 -338l4 1017h76l4 -1017h-84z" />
    <glyph glyph-name="cent" unicode="&#xa2;" horiz-adv-x="1311" 
d="M645 0v177q-206 12 -327 157.5t-121 386.5q0 240 121 386.5t327 158.5v177h63v-177q164 -8 276 -103t137 -235h-78q-23 113 -113.5 187.5t-221.5 81.5v-951q131 7 221 77.5t113 183.5h78q-23 -141 -135.5 -232t-276.5 -98v-177h-63zM275 721q0 -210 99.5 -336t270.5 -139
v950q-171 -12 -270.5 -139t-99.5 -336z" />
    <glyph glyph-name="sterling" unicode="&#xa3;" horiz-adv-x="1311" 
d="M529 450q0 -129 -74 -237t-171 -129v-6h892v-71h-1044v72q145 25 231.5 130.5t86.5 238.5q0 99 -40 235h-244v65h224q-20 64 -29 97t-19 88t-10 103q0 191 123 304t354 113q168 0 290 -62v-74q-114 64 -288 64q-197 0 -298 -93.5t-101 -250.5q0 -46 10.5 -103t18.5 -85.5
t30 -100.5h521v-65h-501q38 -134 38 -233z" />
    <glyph glyph-name="currency" unicode="&#xa4;" horiz-adv-x="1311" 
d="M656 276q-136 0 -241 87l-168 -167l-51 50l168 169q-87 103 -87 240q0 136 87 242l-168 167l51 50l167 -167q104 88 242 88q135 0 241 -87l167 166l51 -50l-167 -167q87 -106 87 -242t-88 -242l168 -167l-51 -50l-167 168q-106 -88 -241 -88zM656 340q130 0 222.5 93
t92.5 222q0 130 -92.5 223t-222.5 93t-222.5 -93t-92.5 -223t92.5 -222.5t222.5 -92.5z" />
    <glyph glyph-name="yen" unicode="&#xa5;" horiz-adv-x="1311" 
d="M695 7h-78v363h-347v61h347v188h-347v61h312l-476 741h93l455 -719h4l455 719h91l-474 -741h335v-61h-370v-188h370v-61h-370v-363z" />
    <glyph glyph-name="brokenbar" unicode="&#xa6;" horiz-adv-x="668" 
d="M369 780h-70v726h70v-726zM369 -301h-70v719h70v-719z" />
    <glyph glyph-name="section" unicode="&#xa7;" horiz-adv-x="1116" 
d="M563 -187q-154 0 -256.5 75.5t-114.5 197.5h78q14 -92 95 -148t201 -56t198 61.5t78 155.5q0 81 -58.5 130t-188.5 87l-97 28q-167 47 -243.5 114.5t-76.5 175.5q0 105 69 178t190 97v6q-121 37 -178.5 101.5t-57.5 161.5q0 127 99 208t254 81q153 0 253.5 -73.5
t114.5 -196.5h-77q-14 91 -93.5 146t-199.5 55q-119 0 -196.5 -61t-77.5 -155q0 -81 58 -131t187 -87l98 -28q166 -48 241.5 -114t75.5 -173t-72 -183t-196 -98v-6q127 -33 187.5 -96t60.5 -162q0 -127 -100 -209t-255 -82zM514 415l61 -17q125 2 204.5 68.5t79.5 169.5
q0 85 -60 137.5t-195 92.5l-62 17q-124 -1 -204.5 -68.5t-80.5 -169.5q0 -85 61 -137.5t196 -92.5z" />
    <glyph glyph-name="dieresis" unicode="&#xa8;" horiz-adv-x="1024" 
d="M354 1320q-28 0 -47.5 19.5t-19.5 47.5t19.5 48t47.5 20t47.5 -20t19.5 -48t-19.5 -47.5t-47.5 -19.5zM670 1320q-28 0 -47.5 19.5t-19.5 47.5t19.5 48t47.5 20t47.5 -20t19.5 -48t-19.5 -47.5t-47.5 -19.5z" />
    <glyph glyph-name="copyright" unicode="&#xa9;" horiz-adv-x="1742" 
d="M871 -145q-160 0 -302.5 59.5t-245 161.5t-162.5 245.5t-60 304.5q0 162 60 305.5t162.5 245.5t245 161t302.5 59q161 0 303.5 -59t245 -161t162 -245.5t59.5 -305.5t-59.5 -305t-162 -245t-245 -161.5t-303.5 -59.5zM871 -78q195 0 356 91.5t253.5 253t92.5 359.5
q0 199 -92.5 360.5t-253 252.5t-356.5 91q-146 0 -275.5 -54t-223.5 -146.5t-148.5 -224t-54.5 -279.5q0 -198 93 -359.5t253.5 -253t355.5 -91.5zM1223 795h-68q-24 90 -99.5 146t-186.5 56q-144 0 -234 -98.5t-90 -266.5q0 -170 90 -270t234 -100q117 0 190.5 52.5
t93.5 139.5h69q-23 -116 -116 -185t-236 -69q-174 0 -284 117.5t-110 314.5q0 196 109.5 311.5t283.5 115.5q140 0 236.5 -75.5t117.5 -188.5z" />
    <glyph glyph-name="a.sups" unicode="&#xaa;" horiz-adv-x="761" 
d="M320 744q-107 0 -174.5 55t-67.5 144t66.5 140t193.5 59l241 17v66q0 82 -52 126.5t-145 44.5q-82 0 -138 -32.5t-70 -91.5h-67q13 86 88.5 135.5t188.5 49.5q124 0 193.5 -60.5t69.5 -171.5v-470h-66v133h-6q-30 -67 -98.5 -105.5t-156.5 -38.5zM333 803
q103 0 174.5 60.5t71.5 147.5v94l-231 -16q-201 -14 -201 -143q0 -64 51.5 -103.5t134.5 -39.5z" />
    <glyph glyph-name="guillemotleft" unicode="&#xab;" horiz-adv-x="1319" 
d="M293 572v-9l365 -408h-94l-371 410v5l371 409h94zM701 572v-9l365 -408h-94l-370 410v5l370 409h94z" />
    <glyph glyph-name="logicalnot" unicode="&#xac;" horiz-adv-x="1311" 
d="M1085 612v-524h-75v451h-784v73h859z" />
    <glyph glyph-name="registered" unicode="&#xae;" horiz-adv-x="1260" 
d="M630 473q-139 0 -255.5 67t-184 184t-67.5 256t67.5 256t184 184t255.5 67q212 0 359.5 -147.5t147.5 -359.5t-147.5 -359.5t-359.5 -147.5zM630 531q189 0 319 130.5t130 318.5q0 189 -130 319t-319 130q-188 0 -318.5 -130t-130.5 -319q0 -188 130.5 -318.5
t318.5 -130.5zM503 723h-56v536h211q78 0 127.5 -43.5t49.5 -119.5q0 -64 -37 -105.5t-92 -49.5l154 -218h-69l-149 210h-139v-210zM503 1207v-224h139q66 0 99.5 30.5t33.5 82.5q0 51 -35 81t-98 30h-139z" />
    <glyph glyph-name="macron" unicode="&#xaf;" horiz-adv-x="1024" 
d="M804 1422v-66h-584v66h584z" />
    <glyph glyph-name="degree" unicode="&#xb0;" horiz-adv-x="897" 
d="M449 810q-125 0 -210.5 87t-85.5 212q0 124 85.5 211t210.5 87t210.5 -87t85.5 -211q0 -125 -85.5 -212t-210.5 -87zM449 877q94 0 159.5 68t65.5 164q0 95 -65.5 163t-159.5 68t-159.5 -67.5t-65.5 -163.5t65.5 -164t159.5 -68z" />
    <glyph glyph-name="plusminus" unicode="&#xb1;" horiz-adv-x="1311" 
d="M691 660v-351h-71v351h-408v69h408v334h71v-334h408v-69h-408zM1099 88h-887v69h887v-69z" />
    <glyph glyph-name="two.sups" unicode="&#xb2;" horiz-adv-x="746" 
d="M93 1361q2 109 80.5 178.5t198.5 69.5q117 0 194 -66.5t77 -167.5q0 -68 -40 -131.5t-152 -172.5l-254 -247v-6h475v-63h-574v52l310 307q98 98 131.5 149t33.5 107q0 76 -57.5 126.5t-146.5 50.5q-90 0 -148 -52t-60 -134h-68z" />
    <glyph glyph-name="three.sups" unicode="&#xb3;" horiz-adv-x="764" 
d="M268 1159v59h100q93 0 151 46t58 120q0 68 -58 115.5t-144 47.5t-144.5 -45.5t-63.5 -117.5h-67q5 98 82.5 161.5t195.5 63.5q117 0 192.5 -63t75.5 -154q0 -76 -46.5 -127.5t-127.5 -69.5v-5q99 -11 156.5 -66t57.5 -142q0 -105 -88 -174t-220 -69q-124 0 -209.5 66
t-87.5 165h68q3 -71 69.5 -119.5t160.5 -48.5q101 0 168.5 52.5t67.5 131.5q0 80 -66 126.5t-180 46.5h-101z" />
    <glyph glyph-name="acute" unicode="&#xb4;" horiz-adv-x="1024" 
d="M438 1228h-74l202 321h94z" />
    <glyph glyph-name="mugreek" unicode="&#x3bc;" horiz-adv-x="1252" 
d="M185 -353v1430h77v-677q0 -164 84.5 -255t236.5 -91q156 0 252.5 106t96.5 274v643h77v-868q0 -80 26 -114.5t85 -34.5q34 0 61 8v-68q-30 -10 -74 -10q-85 0 -126 44t-46 141l-1 48h-7q-41 -113 -131 -176.5t-215 -63.5q-118 0 -202 53t-110 144h-7v-533h-77z" />
    <glyph glyph-name="mugreek" unicode="&#xb5;" horiz-adv-x="1252" 
d="M185 -353v1430h77v-677q0 -164 84.5 -255t236.5 -91q156 0 252.5 106t96.5 274v643h77v-868q0 -80 26 -114.5t85 -34.5q34 0 61 8v-68q-30 -10 -74 -10q-85 0 -126 44t-46 141l-1 48h-7q-41 -113 -131 -176.5t-215 -63.5q-118 0 -202 53t-110 144h-7v-533h-77z" />
    <glyph glyph-name="paragraph" unicode="&#xb6;" horiz-adv-x="1116" 
d="M680 -162h-74v820h-20q-192 0 -317 110.5t-125 278.5q0 177 122.5 286.5t320.5 109.5h93v-1605zM856 -162v1605h73v-1605h-73z" />
    <glyph glyph-name="middledot" unicode="&#xb7;" horiz-adv-x="573" 
d="M287 464q-31 0 -52.5 21.5t-21.5 52.5q0 32 21.5 53t52.5 21t52.5 -21.5t21.5 -52.5t-21.5 -52.5t-52.5 -21.5z" />
    <glyph glyph-name="cedilla" unicode="&#xb8;" horiz-adv-x="1024" 
d="M417 -197v47l77 168h62v-18l-65 -139q98 0 155.5 -40.5t57.5 -116.5q0 -79 -63 -126t-156 -47q-70 0 -138 22v61q53 -22 130 -22q64 0 108 30t44 80q0 101 -162 101h-50z" />
    <glyph glyph-name="one.sups" unicode="&#xb9;" horiz-adv-x="543" 
d="M301 755v761h-5q-24 -12 -118 -72t-115 -73v74q9 6 58.5 37.5t99.5 63t81 47.5h70v-838h-71z" />
    <glyph glyph-name="o.sups" unicode="&#xba;" horiz-adv-x="819" 
d="M409 743q-150 0 -238 96.5t-88 260.5q0 165 88 261t238 96t238.5 -96t88.5 -261q0 -164 -88.5 -260.5t-238.5 -96.5zM409 805q118 0 187.5 79.5t69.5 215.5t-69.5 215.5t-187.5 79.5t-187.5 -79.5t-69.5 -215.5t69 -215.5t188 -79.5z" />
    <glyph glyph-name="guillemotright" unicode="&#xbb;" horiz-adv-x="1319" 
d="M1027 563v9l-366 407h95l370 -409v-5l-370 -410h-95zM619 563v9l-366 407h95l370 -409v-5l-370 -410h-95z" />
    <glyph glyph-name="onequarter" unicode="&#xbc;" horiz-adv-x="1770" 
d="M301 605v761h-5q-24 -12 -118 -72t-115 -73v74q9 6 58.5 37.5t99.5 63t81 47.5h70v-838h-71zM387 0h-77l940 1443h78zM1491 0v198h-454v63q78 123 162.5 239.5t261.5 340.5h99v-580h136v-63h-136v-198h-69zM1109 265v-5h383v513h-5q-164 -204 -236 -302t-142 -206z" />
    <glyph glyph-name="onehalf" unicode="&#xbd;" horiz-adv-x="1812" 
d="M301 605v761h-5q-24 -12 -118 -72t-115 -73v74q9 6 58.5 37.5t99.5 63t81 47.5h70v-838h-71zM387 0h-77l940 1443h78zM1159 607q2 108 80 177.5t199 69.5q117 0 194 -66.5t77 -166.5q0 -69 -40 -132t-152 -173l-254 -247v-5h475v-64h-574v53l310 306q98 98 131.5 149.5
t33.5 106.5q0 76 -57.5 126.5t-146.5 50.5q-90 0 -148.5 -52t-60.5 -133h-67z" />
    <glyph glyph-name="threequarters" unicode="&#xbe;" horiz-adv-x="1992" 
d="M268 1009v59h100q93 0 151 46t58 120q0 68 -58 115.5t-144 47.5t-144.5 -45.5t-63.5 -117.5h-67q5 98 82.5 161.5t195.5 63.5q117 0 192.5 -63t75.5 -154q0 -76 -46.5 -127.5t-127.5 -69.5v-5q99 -11 156.5 -66t57.5 -142q0 -105 -88 -174t-220 -69q-124 0 -209.5 66
t-87.5 165h68q3 -71 69.5 -119.5t160.5 -48.5q101 0 168.5 52.5t67.5 131.5q0 80 -66 126.5t-180 46.5h-101zM608 0h-77l941 1443h77zM1713 0v198h-454v63q80 126 163.5 242t259.5 338h99v-580h136v-63h-136v-198h-68zM1331 265v-5h383v513h-5q-166 -207 -238.5 -305.5
t-139.5 -202.5z" />
    <glyph glyph-name="questiondown" unicode="&#xbf;" horiz-adv-x="979" 
d="M524 965q-33 0 -54.5 21.5t-21.5 55.5q0 33 21.5 54.5t54.5 21.5t54.5 -21.5t21.5 -54.5q0 -34 -21.5 -55.5t-54.5 -21.5zM895 2q-9 -158 -119 -261t-278 -103q-169 0 -280 101t-111 254q0 101 50.5 179.5t162.5 156.5q101 71 137.5 127t36.5 144v90h78v-98
q0 -100 -42 -167.5t-151 -142.5q-104 -72 -147.5 -138t-43.5 -148q0 -125 89 -206t223 -81q129 0 218 80.5t101 212.5h76z" />
    <glyph glyph-name="Agrave" unicode="&#xc0;" horiz-adv-x="1341" 
d="M632 1578l-216 297h96l194 -297h-74zM1175 0l-180 481h-649l-179 -481h-86l550 1443h80l549 -1443h-85zM667 1336l-295 -784h597l-295 784h-7z" />
    <glyph glyph-name="Aacute" unicode="&#xc1;" horiz-adv-x="1341" 
d="M709 1578h-74l194 297h96zM1175 0l-180 481h-649l-179 -481h-86l550 1443h80l549 -1443h-85zM667 1336l-295 -784h597l-295 784h-7z" />
    <glyph glyph-name="Acircumflex" unicode="&#xc2;" horiz-adv-x="1341" 
d="M635 1875h71l275 -296h-94l-213 235h-6l-213 -235h-94zM1175 0l-180 481h-649l-179 -481h-86l550 1443h80l549 -1443h-85zM667 1336l-295 -784h597l-295 784h-7z" />
    <glyph glyph-name="Atilde" unicode="&#xc3;" horiz-adv-x="1341" 
d="M802 1612q-40 0 -72.5 16.5t-54 39.5t-41 46t-44 39.5t-52.5 16.5q-47 0 -76.5 -43.5t-29.5 -115.5h-68q0 101 47.5 162t127.5 61q40 0 72.5 -16.5t54 -40t41.5 -46.5t44.5 -39.5t52.5 -16.5q47 0 76 43.5t29 116.5h68q0 -101 -47.5 -162t-127.5 -61zM1175 0l-180 481
h-649l-179 -481h-86l550 1443h80l549 -1443h-85zM667 1336l-295 -784h597l-295 784h-7z" />
    <glyph glyph-name="Adieresis" unicode="&#xc4;" horiz-adv-x="1341" 
d="M513 1666q-28 0 -48 20t-20 48t20 47.5t48 19.5t47.5 -19.5t19.5 -47.5t-19.5 -48t-47.5 -20zM829 1666q-28 0 -48 20t-20 48t20 47.5t48 19.5t47.5 -19.5t19.5 -47.5t-19.5 -48t-47.5 -20zM1175 0l-180 481h-649l-179 -481h-86l550 1443h80l549 -1443h-85zM667 1336
l-295 -784h597l-295 784h-7z" />
    <glyph glyph-name="Aring" unicode="&#x212b;" horiz-adv-x="1341" 
d="M671 1560q-71 0 -119 48t-48 118t48.5 118t118.5 48t118 -48t48 -118t-48 -118t-118 -48zM671 1614q50 0 81 33t31 79q0 48 -31 80t-81 32q-51 0 -82 -32t-31 -80q0 -47 31.5 -79.5t81.5 -32.5zM1175 0l-180 481h-649l-179 -481h-86l550 1443h80l549 -1443h-85zM667 1336
l-295 -784h597l-295 784h-7z" />
    <glyph glyph-name="Aring" unicode="&#xc5;" horiz-adv-x="1341" 
d="M671 1560q-71 0 -119 48t-48 118t48.5 118t118.5 48t118 -48t48 -118t-48 -118t-118 -48zM671 1614q50 0 81 33t31 79q0 48 -31 80t-81 32q-51 0 -82 -32t-31 -80q0 -47 31.5 -79.5t81.5 -32.5zM1175 0l-180 481h-649l-179 -481h-86l550 1443h80l549 -1443h-85zM667 1336
l-295 -784h597l-295 784h-7z" />
    <glyph glyph-name="AE" unicode="&#xc6;" horiz-adv-x="1941" 
d="M1023 0v422h-651l-208 -422h-83l712 1443h1010v-73h-702v-597h666v-72h-666v-628h702v-73h-780zM843 1373l-438 -881h618v881h-180z" />
    <glyph glyph-name="Ccedilla" unicode="&#xc7;" horiz-adv-x="1441" 
d="M664 -197v47l59 127q-278 14 -437 212.5t-159 532.5q0 343 170.5 544t462.5 201q216 0 377.5 -135t186.5 -337h-80q-17 111 -86 202.5t-174 143.5t-224 52q-252 0 -402.5 -182.5t-150.5 -488.5q0 -307 150 -489.5t403 -182.5q190 0 325.5 104t158.5 268h80
q-22 -191 -168.5 -313.5t-362.5 -131.5l-54 -116q98 0 155.5 -40.5t57.5 -116.5q0 -79 -63 -126t-156 -47q-71 0 -139 22v61q55 -22 131 -22q63 0 107 30.5t44 79.5q0 101 -162 101h-50z" />
    <glyph glyph-name="Egrave" unicode="&#xc8;" horiz-adv-x="1166" 
d="M570 1578l-216 297h96l194 -297h-74zM1028 73v-73h-841v1443h841v-73h-762v-594h726v-72h-726v-631h762z" />
    <glyph glyph-name="Eacute" unicode="&#xc9;" horiz-adv-x="1166" 
d="M646 1578h-74l194 297h96zM1028 73v-73h-841v1443h841v-73h-762v-594h726v-72h-726v-631h762z" />
    <glyph glyph-name="Ecircumflex" unicode="&#xca;" horiz-adv-x="1166" 
d="M572 1875h72l274 -296h-94l-213 235h-6l-213 -235h-94zM1028 73v-73h-841v1443h841v-73h-762v-594h726v-72h-726v-631h762z" />
    <glyph glyph-name="Edieresis" unicode="&#xcb;" horiz-adv-x="1166" 
d="M450 1666q-28 0 -47.5 20t-19.5 48t19.5 47.5t47.5 19.5t47.5 -19.5t19.5 -47.5t-19.5 -48t-47.5 -20zM766 1666q-28 0 -48 20t-20 48t20 47.5t48 19.5t47.5 -19.5t19.5 -47.5t-19.5 -48t-47.5 -20zM1028 73v-73h-841v1443h841v-73h-762v-594h726v-72h-726v-631h762z" />
    <glyph glyph-name="Igrave" unicode="&#xcc;" horiz-adv-x="453" 
d="M188 1578l-216 297h96l194 -297h-74zM266 0h-79v1443h79v-1443z" />
    <glyph glyph-name="Iacute" unicode="&#xcd;" horiz-adv-x="453" 
d="M265 1578h-74l194 297h96zM266 0h-79v1443h79v-1443z" />
    <glyph glyph-name="Icircumflex" unicode="&#xce;" horiz-adv-x="453" 
d="M191 1875h71l274 -296h-94l-213 235h-5l-214 -235h-94zM266 0h-79v1443h79v-1443z" />
    <glyph glyph-name="Idieresis" unicode="&#xcf;" horiz-adv-x="453" 
d="M69 1666q-28 0 -48 20t-20 48t20 47.5t48 19.5t47.5 -19.5t19.5 -47.5t-19.5 -48t-47.5 -20zM384 1666q-28 0 -47.5 20t-19.5 48t19.5 47.5t47.5 19.5t48 -19.5t20 -47.5t-20 -48t-48 -20zM266 0h-79v1443h79v-1443z" />
    <glyph glyph-name="Eth" unicode="&#xd0;" horiz-adv-x="1451" 
d="M19 706v73h168v664h449q334 0 511 -192t177 -529q0 -338 -176.5 -530t-511.5 -192h-449v706h-168zM267 1370v-591h377v-73h-377v-633h365q292 0 451.5 172.5t159.5 475.5t-159.5 476t-451.5 173h-365z" />
    <glyph glyph-name="Ntilde" unicode="&#xd1;" horiz-adv-x="1460" 
d="M861 1612q-40 0 -72.5 16.5t-54 39.5t-41 46t-44 39.5t-52.5 16.5q-47 0 -76 -43.5t-29 -115.5h-69q0 101 47.5 162t127.5 61q40 0 72.5 -16.5t54 -40t41.5 -46.5t44.5 -39.5t52.5 -16.5q48 0 76.5 43.5t28.5 116.5h69q0 -101 -47.5 -162t-128.5 -61zM266 0h-79v1443h82
l918 -1297h7v1297h79v-1443h-75l-925 1304h-7v-1304z" />
    <glyph glyph-name="Ograve" unicode="&#xd2;" horiz-adv-x="1537" 
d="M730 1578l-216 297h96l194 -297h-74zM768 1467q297 0 469.5 -200t172.5 -545t-172 -545.5t-470 -200.5t-469.5 200t-171.5 546q0 344 172.5 544.5t468.5 200.5zM768 1393q-257 0 -409 -182t-152 -489t152 -489.5t409 -182.5t409.5 183t152.5 489q0 307 -152.5 489
t-409.5 182z" />
    <glyph glyph-name="Oacute" unicode="&#xd3;" horiz-adv-x="1537" 
d="M807 1578h-74l194 297h96zM768 1467q297 0 469.5 -200t172.5 -545t-172 -545.5t-470 -200.5t-469.5 200t-171.5 546q0 344 172.5 544.5t468.5 200.5zM768 1393q-257 0 -409 -182t-152 -489t152 -489.5t409 -182.5t409.5 183t152.5 489q0 307 -152.5 489t-409.5 182z" />
    <glyph glyph-name="Ocircumflex" unicode="&#xd4;" horiz-adv-x="1537" 
d="M732 1875h72l274 -296h-94l-213 235h-6l-213 -235h-94zM768 1467q297 0 469.5 -200t172.5 -545t-172 -545.5t-470 -200.5t-469.5 200t-171.5 546q0 344 172.5 544.5t468.5 200.5zM768 1393q-257 0 -409 -182t-152 -489t152 -489.5t409 -182.5t409.5 183t152.5 489
q0 307 -152.5 489t-409.5 182z" />
    <glyph glyph-name="Otilde" unicode="&#xd5;" horiz-adv-x="1537" 
d="M900 1612q-40 0 -72.5 16.5t-54 39.5t-41 46t-44 39.5t-52.5 16.5q-47 0 -76.5 -43.5t-29.5 -115.5h-68q0 101 47.5 162t127.5 61q40 0 72.5 -16.5t54 -40t41.5 -46.5t44.5 -39.5t52.5 -16.5q47 0 76 43.5t29 116.5h68q0 -101 -47.5 -162t-127.5 -61zM768 1467
q297 0 469.5 -200t172.5 -545t-172 -545.5t-470 -200.5t-469.5 200t-171.5 546q0 344 172.5 544.5t468.5 200.5zM768 1393q-257 0 -409 -182t-152 -489t152 -489.5t409 -182.5t409.5 183t152.5 489q0 307 -152.5 489t-409.5 182z" />
    <glyph glyph-name="Odieresis" unicode="&#xd6;" horiz-adv-x="1537" 
d="M610 1666q-28 0 -47.5 20t-19.5 48t19.5 47.5t47.5 19.5t48 -19.5t20 -47.5t-20 -48t-48 -20zM926 1666q-28 0 -47.5 20t-19.5 48t19.5 47.5t47.5 19.5t48 -19.5t20 -47.5t-20 -48t-48 -20zM768 1467q297 0 469.5 -200t172.5 -545t-172 -545.5t-470 -200.5t-469.5 200
t-171.5 546q0 344 172.5 544.5t468.5 200.5zM768 1393q-257 0 -409 -182t-152 -489t152 -489.5t409 -182.5t409.5 183t152.5 489q0 307 -152.5 489t-409.5 182z" />
    <glyph glyph-name="multiply" unicode="&#xd7;" horiz-adv-x="1311" 
d="M656 526l-351 -349l-49 48l350 350l-350 351l50 50l349 -351l351 351l49 -49l-349 -352l348 -348l-50 -50z" />
    <glyph glyph-name="Oslash" unicode="&#xd8;" horiz-adv-x="1537" 
d="M768 1467q276 0 445 -174l143 167l49 -44l-148 -173q153 -196 153 -521q0 -345 -172 -545.5t-470 -200.5q-276 0 -445 174l-142 -167l-49 44l148 173q-153 196 -153 522q0 344 172.5 544.5t468.5 200.5zM768 1396q-258 0 -410.5 -183t-152.5 -491q0 -283 128 -460
l829 971q-152 163 -394 163zM1332 722q0 279 -128 459l-829 -970q151 -163 393 -163q258 0 411 183t153 491z" />
    <glyph glyph-name="Ugrave" unicode="&#xd9;" horiz-adv-x="1451" 
d="M687 1578l-216 297h96l194 -297h-74zM266 1443v-934q0 -204 126 -327.5t333 -123.5t333.5 123.5t126.5 327.5v934h80v-937q0 -239 -147 -380.5t-393 -141.5t-392.5 141.5t-146.5 380.5v937h80z" />
    <glyph glyph-name="Uacute" unicode="&#xda;" horiz-adv-x="1451" 
d="M764 1578h-74l194 297h96zM266 1443v-934q0 -204 126 -327.5t333 -123.5t333.5 123.5t126.5 327.5v934h80v-937q0 -239 -147 -380.5t-393 -141.5t-392.5 141.5t-146.5 380.5v937h80z" />
    <glyph glyph-name="Ucircumflex" unicode="&#xdb;" horiz-adv-x="1451" 
d="M690 1875h71l274 -296h-94l-213 235h-5l-214 -235h-94zM266 1443v-934q0 -204 126 -327.5t333 -123.5t333.5 123.5t126.5 327.5v934h80v-937q0 -239 -147 -380.5t-393 -141.5t-392.5 141.5t-146.5 380.5v937h80z" />
    <glyph glyph-name="Udieresis" unicode="&#xdc;" horiz-adv-x="1451" 
d="M568 1666q-28 0 -48 20t-20 48t20 47.5t48 19.5t47.5 -19.5t19.5 -47.5t-19.5 -48t-47.5 -20zM883 1666q-28 0 -47.5 20t-19.5 48t19.5 47.5t47.5 19.5t48 -19.5t20 -47.5t-20 -48t-48 -20zM266 1443v-934q0 -204 126 -327.5t333 -123.5t333.5 123.5t126.5 327.5v934h80
v-937q0 -239 -147 -380.5t-393 -141.5t-392.5 141.5t-146.5 380.5v937h80z" />
    <glyph glyph-name="Yacute" unicode="&#xdd;" horiz-adv-x="1291" 
d="M684 1578h-75l195 297h96zM686 0h-80v629l-524 814h92l468 -731h8l467 731h92l-523 -814v-629z" />
    <glyph glyph-name="Thorn" unicode="&#xde;" horiz-adv-x="1257" 
d="M187 1443h80v-285h404q197 0 318.5 -108.5t121.5 -295.5t-120.5 -294.5t-320.5 -107.5h-403v-352h-80v1443zM267 1085v-661h390q175 0 275 88t100 242q0 153 -100.5 242t-274.5 89h-390z" />
    <glyph glyph-name="germandbls" unicode="&#xdf;" horiz-adv-x="1169" 
d="M269 0h-77v1101q0 180 101.5 284t278.5 104q170 0 276.5 -99.5t106.5 -252.5q0 -125 -70.5 -222.5t-176.5 -124.5v-7q158 -15 262 -122t104 -268q0 -175 -127 -293t-320 -118q-90 0 -170 16v72q70 -18 167 -18q160 0 266.5 97t106.5 245q0 154 -114 250.5t-305 96.5h-98
v75h95q128 0 215.5 90t87.5 228q0 125 -84 205t-220 80q-149 0 -227 -87.5t-78 -240.5v-1091z" />
    <glyph glyph-name="agrave" unicode="&#xe0;" horiz-adv-x="1118" 
d="M529 1228l-221 321h93l202 -321h-74zM477 -17q-160 0 -260 85t-100 224q0 137 98 215.5t284 91.5l371 28v105q0 141 -81 216t-226 75q-129 0 -216.5 -55.5t-108.5 -156.5h-78q21 131 131 206.5t274 75.5q179 0 280.5 -94t101.5 -266v-733h-74v220h-8
q-45 -109 -149.5 -173t-238.5 -64zM486 53q161 0 272.5 101t111.5 247v160l-359 -27q-156 -11 -236 -72.5t-80 -168.5t81 -173.5t210 -66.5z" />
    <glyph glyph-name="aacute" unicode="&#xe1;" horiz-adv-x="1118" 
d="M600 1228h-74l202 321h94zM477 -17q-160 0 -260 85t-100 224q0 137 98 215.5t284 91.5l371 28v105q0 141 -81 216t-226 75q-129 0 -216.5 -55.5t-108.5 -156.5h-78q21 131 131 206.5t274 75.5q179 0 280.5 -94t101.5 -266v-733h-74v220h-8q-45 -109 -149.5 -173
t-238.5 -64zM486 53q161 0 272.5 101t111.5 247v160l-359 -27q-156 -11 -236 -72.5t-80 -168.5t81 -173.5t210 -66.5z" />
    <glyph glyph-name="acircumflex" unicode="&#xe2;" horiz-adv-x="1118" 
d="M610 1549l255 -321h-91l-206 264h-6l-206 -264h-91l255 321h90zM477 -17q-160 0 -260 85t-100 224q0 137 98 215.5t284 91.5l371 28v105q0 141 -81 216t-226 75q-129 0 -216.5 -55.5t-108.5 -156.5h-78q21 131 131 206.5t274 75.5q179 0 280.5 -94t101.5 -266v-733h-74
v220h-8q-45 -109 -149.5 -173t-238.5 -64zM486 53q161 0 272.5 101t111.5 247v160l-359 -27q-156 -11 -236 -72.5t-80 -168.5t81 -173.5t210 -66.5z" />
    <glyph glyph-name="atilde" unicode="&#xe3;" horiz-adv-x="1118" 
d="M696 1266q-40 0 -72.5 16t-54 39t-41 46.5t-44 39.5t-52.5 16q-47 0 -76.5 -43t-29.5 -115h-68q0 101 47.5 162t127.5 61q40 0 72.5 -16.5t54 -40t41.5 -46.5t44.5 -39.5t52.5 -16.5q48 0 76.5 43.5t28.5 116.5h69q0 -101 -48 -162t-128 -61zM477 -17q-160 0 -260 85
t-100 224q0 137 98 215.5t284 91.5l371 28v105q0 141 -81 216t-226 75q-129 0 -216.5 -55.5t-108.5 -156.5h-78q21 131 131 206.5t274 75.5q179 0 280.5 -94t101.5 -266v-733h-74v220h-8q-45 -109 -149.5 -173t-238.5 -64zM486 53q161 0 272.5 101t111.5 247v160l-359 -27
q-156 -11 -236 -72.5t-80 -168.5t81 -173.5t210 -66.5z" />
    <glyph glyph-name="adieresis" unicode="&#xe4;" horiz-adv-x="1118" 
d="M407 1320q-28 0 -48 19.5t-20 47.5t20 48t48 20t47.5 -20t19.5 -48t-19.5 -47.5t-47.5 -19.5zM723 1320q-28 0 -48 19.5t-20 47.5t20 48t48 20t47.5 -20t19.5 -48t-19.5 -47.5t-47.5 -19.5zM477 -17q-160 0 -260 85t-100 224q0 137 98 215.5t284 91.5l371 28v105
q0 141 -81 216t-226 75q-129 0 -216.5 -55.5t-108.5 -156.5h-78q21 131 131 206.5t274 75.5q179 0 280.5 -94t101.5 -266v-733h-74v220h-8q-45 -109 -149.5 -173t-238.5 -64zM486 53q161 0 272.5 101t111.5 247v160l-359 -27q-156 -11 -236 -72.5t-80 -168.5t81 -173.5
t210 -66.5z" />
    <glyph glyph-name="aring" unicode="&#xe5;" horiz-adv-x="1118" 
d="M565 1228q-79 0 -133.5 54t-54.5 133q0 78 55 132t133 54t132.5 -54t54.5 -132q0 -79 -54.5 -133t-132.5 -54zM565 1286q53 0 90.5 37t37.5 92q0 54 -37 91t-91 37t-91.5 -37t-37.5 -91q0 -55 37.5 -92t91.5 -37zM477 -17q-160 0 -260 85t-100 224q0 137 98 215.5
t284 91.5l371 28v105q0 141 -81 216t-226 75q-129 0 -216.5 -55.5t-108.5 -156.5h-78q21 131 131 206.5t274 75.5q179 0 280.5 -94t101.5 -266v-733h-74v220h-8q-45 -109 -149.5 -173t-238.5 -64zM486 53q161 0 272.5 101t111.5 247v160l-359 -27q-156 -11 -236 -72.5
t-80 -168.5t81 -173.5t210 -66.5z" />
    <glyph glyph-name="ae" unicode="&#xe6;" horiz-adv-x="1922" 
d="M1349 -17q-155 0 -267.5 80t-158.5 225h-8q-40 -141 -157 -223t-276 -82q-163 0 -264 84t-101 219q0 133 96 208t282 87l375 25v133q0 137 -77.5 210.5t-222.5 73.5q-131 0 -221 -57.5t-111 -154.5h-78q19 128 132 205t280 77q149 0 244.5 -74.5t109.5 -203.5h8
q44 123 153 200.5t258 77.5q209 0 331.5 -139t122.5 -374v-46h-852v-10q2 -214 112 -342.5t291 -128.5q126 0 218 52t128 144h81q-41 -123 -156 -194.5t-272 -71.5zM1343 1024q-171 0 -278.5 -116t-116.5 -308h771q-1 190 -104.5 307t-271.5 117zM489 53q160 0 270.5 101.5
t110.5 248.5v137l-362 -24q-313 -21 -313 -229q0 -104 82 -169t212 -65z" />
    <glyph glyph-name="ccedilla" unicode="&#xe7;" horiz-adv-x="1144" 
d="M502 -197v47l62 134q-204 13 -322.5 162.5t-118.5 395.5q0 253 128.5 402t346.5 149q167 0 284 -89t143 -229h-77q-30 112 -124.5 180t-225.5 68q-181 0 -288.5 -130.5t-107.5 -350.5q0 -223 107.5 -355.5t288.5 -132.5q134 0 228 63.5t120 172.5h78
q-26 -133 -129.5 -215t-260.5 -91l-58 -123q98 0 155.5 -40.5t57.5 -116.5q0 -79 -63 -126t-156 -47q-70 0 -138 22v61q55 -22 130 -22q64 0 108 30t44 80q0 101 -162 101h-50z" />
    <glyph glyph-name="egrave" unicode="&#xe8;" horiz-adv-x="1179" 
d="M560 1228l-222 321h94l202 -321h-74zM953 249h81q-40 -122 -156.5 -194t-275.5 -72q-220 0 -349.5 150t-129.5 404t129 405t347 151q211 0 334 -141t123 -382v-46h-854v-3q2 -213 111 -340.5t290 -127.5q127 0 221 53t129 143zM598 1023q-171 0 -278.5 -117.5
t-116.5 -314.5h773q-1 196 -104 314t-274 118z" />
    <glyph glyph-name="eacute" unicode="&#xe9;" horiz-adv-x="1179" 
d="M631 1228h-74l202 321h94zM953 249h81q-40 -122 -156.5 -194t-275.5 -72q-220 0 -349.5 150t-129.5 404t129 405t347 151q211 0 334 -141t123 -382v-46h-854v-3q2 -213 111 -340.5t290 -127.5q127 0 221 53t129 143zM598 1023q-171 0 -278.5 -117.5t-116.5 -314.5h773
q-1 196 -104 314t-274 118z" />
    <glyph glyph-name="ecircumflex" unicode="&#xea;" horiz-adv-x="1179" 
d="M640 1549l255 -321h-91l-206 264h-6l-206 -264h-90l255 321h89zM953 249h81q-40 -122 -156.5 -194t-275.5 -72q-220 0 -349.5 150t-129.5 404t129 405t347 151q211 0 334 -141t123 -382v-46h-854v-3q2 -213 111 -340.5t290 -127.5q127 0 221 53t129 143zM598 1023
q-171 0 -278.5 -117.5t-116.5 -314.5h773q-1 196 -104 314t-274 118z" />
    <glyph glyph-name="edieresis" unicode="&#xeb;" horiz-adv-x="1179" 
d="M437 1320q-28 0 -47.5 19.5t-19.5 47.5t19.5 48t47.5 20t48 -20t20 -48t-20 -47.5t-48 -19.5zM753 1320q-28 0 -47.5 19.5t-19.5 47.5t19.5 48t47.5 20t48 -20t20 -48t-20 -47.5t-48 -19.5zM953 249h81q-40 -122 -156.5 -194t-275.5 -72q-220 0 -349.5 150t-129.5 404
t129 405t347 151q211 0 334 -141t123 -382v-46h-854v-3q2 -213 111 -340.5t290 -127.5q127 0 221 53t129 143zM598 1023q-171 0 -278.5 -117.5t-116.5 -314.5h773q-1 196 -104 314t-274 118z" />
    <glyph glyph-name="igrave" unicode="&#xec;" horiz-adv-x="449" 
d="M189 1228l-222 321h94l202 -321h-74zM186 0v1077h77v-1077h-77z" />
    <glyph glyph-name="iacute" unicode="&#xed;" horiz-adv-x="449" 
d="M260 1228h-74l202 321h94zM186 0v1077h77v-1077h-77z" />
    <glyph glyph-name="icircumflex" unicode="&#xee;" horiz-adv-x="449" 
d="M269 1549l255 -321h-90l-206 264h-6l-206 -264h-91l255 321h89zM186 0v1077h77v-1077h-77z" />
    <glyph glyph-name="idieresis" unicode="&#xef;" horiz-adv-x="449" 
d="M67 1320q-28 0 -48 19.5t-20 47.5t20 48t48 20t47.5 -20t19.5 -48t-19.5 -47.5t-47.5 -19.5zM383 1320q-28 0 -48 19.5t-20 47.5t20 48t48 20t47.5 -20t19.5 -48t-19.5 -47.5t-47.5 -19.5zM186 0v1077h77v-1077h-77z" />
    <glyph glyph-name="eth" unicode="&#xf0;" horiz-adv-x="1198" 
d="M597 -16q-214 0 -342 146.5t-128 385.5q0 231 129.5 377.5t328.5 146.5q110 0 205.5 -55t156.5 -163h9q-89 290 -374 468l-287 -151v65l229 121q-106 59 -231 104v64q174 -61 297 -133l268 142l1 -66l-212 -111q202 -132 307.5 -325.5t105.5 -468.5q0 -155 -53 -277.5
t-159.5 -196t-250.5 -73.5zM596 971q-170 0 -280.5 -127t-110.5 -327q0 -207 107 -335.5t285 -128.5q170 0 280 127t110 328q0 205 -108.5 334t-282.5 129z" />
    <glyph glyph-name="ntilde" unicode="&#xf1;" horiz-adv-x="1189" 
d="M730 1266q-40 0 -72.5 16t-54 39t-41 46.5t-44 39.5t-52.5 16q-47 0 -76.5 -43t-29.5 -115h-68q0 101 47.5 162t127.5 61q40 0 72.5 -16.5t54 -40t41.5 -46.5t44.5 -39.5t52.5 -16.5q47 0 76 43.5t29 116.5h68q0 -101 -47.5 -162t-127.5 -61zM178 0v1077h75v-228h7
q47 115 146 179.5t233 64.5q179 0 279.5 -103t100.5 -286v-704h-77v683q0 163 -81.5 251.5t-235.5 88.5q-161 0 -265.5 -107.5t-104.5 -273.5v-642h-77z" />
    <glyph glyph-name="ograve" unicode="&#xf2;" horiz-adv-x="1206" 
d="M567 1228l-221 321h93l203 -321h-75zM603 -17q-220 0 -350 150t-130 405t130 405t350 150t350 -150t130 -405t-130 -405t-350 -150zM603 54q184 0 292.5 131.5t108.5 352.5q0 222 -108.5 353.5t-292.5 131.5t-292.5 -131t-108.5 -354q0 -222 108.5 -353t292.5 -131z" />
    <glyph glyph-name="oacute" unicode="&#xf3;" horiz-adv-x="1206" 
d="M638 1228h-74l202 321h94zM603 -17q-220 0 -350 150t-130 405t130 405t350 150t350 -150t130 -405t-130 -405t-350 -150zM603 54q184 0 292.5 131.5t108.5 352.5q0 222 -108.5 353.5t-292.5 131.5t-292.5 -131t-108.5 -354q0 -222 108.5 -353t292.5 -131z" />
    <glyph glyph-name="ocircumflex" unicode="&#xf4;" horiz-adv-x="1206" 
d="M648 1549l255 -321h-91l-206 264h-6l-206 -264h-91l255 321h90zM603 -17q-220 0 -350 150t-130 405t130 405t350 150t350 -150t130 -405t-130 -405t-350 -150zM603 54q184 0 292.5 131.5t108.5 352.5q0 222 -108.5 353.5t-292.5 131.5t-292.5 -131t-108.5 -354
q0 -222 108.5 -353t292.5 -131z" />
    <glyph glyph-name="otilde" unicode="&#xf5;" horiz-adv-x="1206" 
d="M734 1266q-40 0 -72.5 16t-53.5 39t-40.5 46.5t-44 39.5t-53.5 16q-47 0 -76 -43t-29 -115h-69q0 101 48 162t127 61q40 0 72.5 -16.5t54 -40t41.5 -46.5t44.5 -39.5t52.5 -16.5q48 0 76.5 43.5t28.5 116.5h69q0 -102 -47.5 -162.5t-128.5 -60.5zM603 -17
q-220 0 -350 150t-130 405t130 405t350 150t350 -150t130 -405t-130 -405t-350 -150zM603 54q184 0 292.5 131.5t108.5 352.5q0 222 -108.5 353.5t-292.5 131.5t-292.5 -131t-108.5 -354q0 -222 108.5 -353t292.5 -131z" />
    <glyph glyph-name="odieresis" unicode="&#xf6;" horiz-adv-x="1206" 
d="M445 1320q-28 0 -48 19.5t-20 47.5t20 48t48 20t47.5 -20t19.5 -48t-19.5 -47.5t-47.5 -19.5zM761 1320q-28 0 -48 19.5t-20 47.5t20 48t48 20t47.5 -20t19.5 -48t-19.5 -47.5t-47.5 -19.5zM603 -17q-220 0 -350 150t-130 405t130 405t350 150t350 -150t130 -405
t-130 -405t-350 -150zM603 54q184 0 292.5 131.5t108.5 352.5q0 222 -108.5 353.5t-292.5 131.5t-292.5 -131t-108.5 -354q0 -222 108.5 -353t292.5 -131z" />
    <glyph glyph-name="divide" unicode="&#xf7;" horiz-adv-x="1311" 
d="M656 908q-29 0 -49 20t-20 49t20 49.5t49 20.5t49.5 -20.5t20.5 -49.5t-20.5 -49t-49.5 -20zM1110 541h-909v69h909v-69zM656 104q-29 0 -49 20.5t-20 49.5t20 49t49 20t49.5 -20t20.5 -49t-20.5 -49.5t-49.5 -20.5z" />
    <glyph glyph-name="oslash" unicode="&#xf8;" horiz-adv-x="1206" 
d="M603 -17q-197 0 -325 123l-107 -126l-47 43l112 132q-113 147 -113 383q0 255 130 405t350 150q197 0 325 -123l105 123l49 -41l-111 -131q112 -148 112 -383q0 -255 -130 -405t-350 -150zM199 538q0 -197 87 -324l593 699q-106 112 -276 112q-186 0 -295 -131.5
t-109 -355.5zM603 52q185 0 294 132t109 354q0 198 -86 324l-593 -699q106 -111 276 -111z" />
    <glyph glyph-name="ugrave" unicode="&#xf9;" horiz-adv-x="1189" 
d="M555 1228l-221 321h93l203 -321h-75zM1011 1077v-1077h-73v227h-8q-39 -114 -138 -179t-235 -65q-177 0 -282 106t-105 284v704h77v-683q0 -158 87 -249t238 -91q162 0 262 105.5t100 274.5v643h77z" />
    <glyph glyph-name="uacute" unicode="&#xfa;" horiz-adv-x="1189" 
d="M626 1228h-74l202 321h94zM1011 1077v-1077h-73v227h-8q-39 -114 -138 -179t-235 -65q-177 0 -282 106t-105 284v704h77v-683q0 -158 87 -249t238 -91q162 0 262 105.5t100 274.5v643h77z" />
    <glyph glyph-name="ucircumflex" unicode="&#xfb;" horiz-adv-x="1189" 
d="M636 1549l255 -321h-91l-206 264h-6l-206 -264h-91l255 321h90zM1011 1077v-1077h-73v227h-8q-39 -114 -138 -179t-235 -65q-177 0 -282 106t-105 284v704h77v-683q0 -158 87 -249t238 -91q162 0 262 105.5t100 274.5v643h77z" />
    <glyph glyph-name="udieresis" unicode="&#xfc;" horiz-adv-x="1189" 
d="M433 1320q-28 0 -48 19.5t-20 47.5t20 48t48 20t47.5 -20t19.5 -48t-19.5 -47.5t-47.5 -19.5zM749 1320q-28 0 -48 19.5t-20 47.5t20 48t48 20t47.5 -20t19.5 -48t-19.5 -47.5t-47.5 -19.5zM1011 1077v-1077h-73v227h-8q-39 -114 -138 -179t-235 -65q-177 0 -282 106
t-105 284v704h77v-683q0 -158 87 -249t238 -91q162 0 262 105.5t100 274.5v643h77z" />
    <glyph glyph-name="yacute" unicode="&#xfd;" horiz-adv-x="1036" 
d="M552 1228h-74l202 321h94zM233 -368q-33 0 -39 1v69q10 -2 42 -2q74 0 121 47t94 168l26 70l-412 1092h84l366 -997h7l366 997h83l-418 -1111q-76 -202 -139.5 -268t-180.5 -66z" />
    <glyph glyph-name="thorn" unicode="&#xfe;" horiz-adv-x="1245" 
d="M668 1093q203 0 328.5 -153.5t125.5 -401.5t-126 -401.5t-328 -153.5q-138 0 -244 75t-152 203h-7v-646h-77v1868h73v-680h7q47 133 154 211.5t246 78.5zM657 54q174 0 280 133t106 351t-106 351.5t-280 133.5q-175 0 -284.5 -135t-109.5 -350q0 -214 110 -349t284 -135z
" />
    <glyph glyph-name="ydieresis" unicode="&#xff;" horiz-adv-x="1036" 
d="M358 1320q-28 0 -47.5 19.5t-19.5 47.5t19.5 48t47.5 20t48 -20t20 -48t-20 -47.5t-48 -19.5zM674 1320q-28 0 -47.5 19.5t-19.5 47.5t19.5 48t47.5 20t48 -20t20 -48t-20 -47.5t-48 -19.5zM233 -368q-33 0 -39 1v69q10 -2 42 -2q74 0 121 47t94 168l26 70l-412 1092h84
l366 -997h7l366 997h83l-418 -1111q-76 -202 -139.5 -268t-180.5 -66z" />
    <glyph glyph-name="Amacron" unicode="&#x100;" horiz-adv-x="1341" 
d="M963 1768v-65h-585v65h585zM1175 0l-180 481h-649l-179 -481h-86l550 1443h80l549 -1443h-85zM667 1336l-295 -784h597l-295 784h-7z" />
    <glyph glyph-name="amacron" unicode="&#x101;" horiz-adv-x="1118" 
d="M857 1422v-66h-585v66h585zM477 -17q-160 0 -260 85t-100 224q0 137 98 215.5t284 91.5l371 28v105q0 141 -81 216t-226 75q-129 0 -216.5 -55.5t-108.5 -156.5h-78q21 131 131 206.5t274 75.5q179 0 280.5 -94t101.5 -266v-733h-74v220h-8q-45 -109 -149.5 -173
t-238.5 -64zM486 53q161 0 272.5 101t111.5 247v160l-359 -27q-156 -11 -236 -72.5t-80 -168.5t81 -173.5t210 -66.5z" />
    <glyph glyph-name="Abreve" unicode="&#x102;" horiz-adv-x="1341" 
d="M389 1843h71q0 -85 57 -132.5t154 -47.5q96 0 153 47.5t57 132.5h72q0 -114 -76.5 -178.5t-205.5 -64.5q-130 0 -206 64.5t-76 178.5zM1175 0l-180 481h-649l-179 -481h-86l550 1443h80l549 -1443h-85zM667 1336l-295 -784h597l-295 784h-7z" />
    <glyph glyph-name="abreve" unicode="&#x103;" horiz-adv-x="1118" 
d="M284 1517h72q0 -93 55 -145.5t154 -52.5t153.5 52.5t54.5 145.5h72q0 -122 -74 -192t-206 -70q-133 0 -207 70t-74 192zM477 -17q-160 0 -260 85t-100 224q0 137 98 215.5t284 91.5l371 28v105q0 141 -81 216t-226 75q-129 0 -216.5 -55.5t-108.5 -156.5h-78
q21 131 131 206.5t274 75.5q179 0 280.5 -94t101.5 -266v-733h-74v220h-8q-45 -109 -149.5 -173t-238.5 -64zM486 53q161 0 272.5 101t111.5 247v160l-359 -27q-156 -11 -236 -72.5t-80 -168.5t81 -173.5t210 -66.5z" />
    <glyph glyph-name="Aogonek" unicode="&#x104;" horiz-adv-x="1341" 
d="M1162 -395q-72 0 -123.5 40t-51.5 119q0 125 184 245l-176 472h-649l-179 -481h-86l550 1443h80l549 -1443q-96 -56 -146.5 -109t-50.5 -112q0 -55 33 -81t85 -26q42 0 81 16v-64q-51 -19 -100 -19zM667 1336l-295 -784h597l-295 784h-7z" />
    <glyph glyph-name="aogonek" unicode="&#x105;" horiz-adv-x="1118" 
d="M477 -17q-160 0 -260 85t-100 224q0 137 98 215.5t284 91.5l371 28v105q0 141 -81 216t-226 75q-129 0 -216.5 -55.5t-108.5 -156.5h-78q21 131 131 206.5t274 75.5q179 0 280.5 -94t101.5 -266v-733q-96 -56 -146.5 -109t-50.5 -112q0 -55 33.5 -81t85.5 -26q40 0 81 16
v-64q-53 -19 -101 -19q-72 0 -123.5 40.5t-51.5 118.5q0 128 199 253v203h-8q-45 -109 -149.5 -173t-238.5 -64zM486 53q161 0 272.5 101t111.5 247v160l-359 -27q-156 -11 -236 -72.5t-80 -168.5t81 -173.5t210 -66.5z" />
    <glyph glyph-name="Cacute" unicode="&#x106;" horiz-adv-x="1441" 
d="M798 1578h-74l194 297h96zM760 -24q-293 0 -463 200t-170 546q0 343 170.5 544t462.5 201q216 0 377.5 -135t186.5 -337h-80q-17 111 -86 202.5t-174 143.5t-224 52q-252 0 -402.5 -182.5t-150.5 -488.5q0 -307 150 -489.5t403 -182.5q190 0 325.5 104t158.5 268h80
q-23 -199 -179.5 -322.5t-384.5 -123.5z" />
    <glyph glyph-name="cacute" unicode="&#x107;" horiz-adv-x="1144" 
d="M632 1228h-74l202 321h94zM1025 775h-77q-30 112 -124.5 180t-225.5 68q-181 0 -288.5 -130.5t-107.5 -350.5q0 -223 107.5 -355.5t288.5 -132.5q134 0 228 63.5t120 172.5h78q-27 -140 -141.5 -223.5t-284.5 -83.5q-218 0 -346.5 151t-128.5 408q0 253 128.5 402
t346.5 149q167 0 284 -89t143 -229z" />
    <glyph glyph-name="Ccircumflex" unicode="&#x108;" horiz-adv-x="1441" 
d="M724 1875h72l274 -296h-94l-213 235h-6l-213 -235h-94zM760 -24q-293 0 -463 200t-170 546q0 343 170.5 544t462.5 201q216 0 377.5 -135t186.5 -337h-80q-17 111 -86 202.5t-174 143.5t-224 52q-252 0 -402.5 -182.5t-150.5 -488.5q0 -307 150 -489.5t403 -182.5
q190 0 325.5 104t158.5 268h80q-23 -199 -179.5 -322.5t-384.5 -123.5z" />
    <glyph glyph-name="ccircumflex" unicode="&#x109;" horiz-adv-x="1144" 
d="M641 1549l255 -321h-91l-206 264h-6l-206 -264h-90l255 321h89zM1025 775h-77q-30 112 -124.5 180t-225.5 68q-181 0 -288.5 -130.5t-107.5 -350.5q0 -223 107.5 -355.5t288.5 -132.5q134 0 228 63.5t120 172.5h78q-27 -140 -141.5 -223.5t-284.5 -83.5
q-218 0 -346.5 151t-128.5 408q0 253 128.5 402t346.5 149q167 0 284 -89t143 -229z" />
    <glyph glyph-name="Cdotaccent" unicode="&#x10a;" horiz-adv-x="1441" 
d="M760 1666q-28 0 -48 20t-20 48t20 47.5t48 19.5t47.5 -19.5t19.5 -47.5t-19.5 -48t-47.5 -20zM760 -24q-293 0 -463 200t-170 546q0 343 170.5 544t462.5 201q216 0 377.5 -135t186.5 -337h-80q-17 111 -86 202.5t-174 143.5t-224 52q-252 0 -402.5 -182.5t-150.5 -488.5
q0 -307 150 -489.5t403 -182.5q190 0 325.5 104t158.5 268h80q-23 -199 -179.5 -322.5t-384.5 -123.5z" />
    <glyph glyph-name="cdotaccent" unicode="&#x10b;" horiz-adv-x="1144" 
d="M596 1320q-28 0 -47.5 19.5t-19.5 47.5t19.5 48t47.5 20t48 -20t20 -48t-20 -47.5t-48 -19.5zM1025 775h-77q-30 112 -124.5 180t-225.5 68q-181 0 -288.5 -130.5t-107.5 -350.5q0 -223 107.5 -355.5t288.5 -132.5q134 0 228 63.5t120 172.5h78q-27 -140 -141.5 -223.5
t-284.5 -83.5q-218 0 -346.5 151t-128.5 408q0 253 128.5 402t346.5 149q167 0 284 -89t143 -229z" />
    <glyph glyph-name="Ccaron" unicode="&#x10c;" horiz-adv-x="1441" 
d="M796 1579h-72l-274 296h94l213 -235h6l213 235h94zM760 -24q-293 0 -463 200t-170 546q0 343 170.5 544t462.5 201q216 0 377.5 -135t186.5 -337h-80q-17 111 -86 202.5t-174 143.5t-224 52q-252 0 -402.5 -182.5t-150.5 -488.5q0 -307 150 -489.5t403 -182.5
q190 0 325.5 104t158.5 268h80q-23 -199 -179.5 -322.5t-384.5 -123.5z" />
    <glyph glyph-name="ccaron" unicode="&#x10d;" horiz-adv-x="1144" 
d="M552 1228l-255 321h90l206 -264h6l206 264h91l-255 -321h-89zM1025 775h-77q-30 112 -124.5 180t-225.5 68q-181 0 -288.5 -130.5t-107.5 -350.5q0 -223 107.5 -355.5t288.5 -132.5q134 0 228 63.5t120 172.5h78q-27 -140 -141.5 -223.5t-284.5 -83.5q-218 0 -346.5 151
t-128.5 408q0 253 128.5 402t346.5 149q167 0 284 -89t143 -229z" />
    <glyph glyph-name="Dcaron" unicode="&#x10e;" horiz-adv-x="1451" 
d="M628 1579h-72l-274 296h94l213 -235h6l213 235h94zM187 1443h449q334 0 511 -192t177 -529q0 -338 -176.5 -530t-511.5 -192h-449v1443zM267 1370v-1297h365q292 0 451.5 172.5t159.5 475.5t-159.5 476t-451.5 173h-365z" />
    <glyph glyph-name="dcaron" unicode="&#x10f;" horiz-adv-x="1353" 
d="M1205 1549h81l-35 -403h-55zM584 -17q-205 0 -333 154t-128 401q0 246 128.5 400.5t332.5 154.5q137 0 243.5 -75.5t152.5 -204.5h7v693h77v-1506h-74v271h-8q-44 -132 -151.5 -210t-246.5 -78zM595 1023q-175 0 -284 -134.5t-109 -350.5t109 -350t284 -134t284.5 134.5
t109.5 349.5t-109.5 350t-284.5 135z" />
    <glyph glyph-name="Dcroat" unicode="&#x110;" horiz-adv-x="1451" 
d="M19 706v73h168v664h449q334 0 511 -192t177 -529q0 -338 -176.5 -530t-511.5 -192h-449v706h-168zM267 1370v-591h377v-73h-377v-633h365q292 0 451.5 172.5t159.5 475.5t-159.5 476t-451.5 173h-365z" />
    <glyph glyph-name="dcroat" unicode="&#x111;" horiz-adv-x="1252" 
d="M584 -17q-205 0 -333 154t-128 401q0 246 128.5 400.5t332.5 154.5q137 0 243.5 -75.5t152.5 -204.5h7v468h-288v67h288v158h77v-158h190v-67h-190v-1281h-74v271h-8q-44 -132 -151.5 -210t-246.5 -78zM595 1023q-175 0 -284 -134.5t-109 -350.5t109 -350t284 -134
t284.5 134.5t109.5 349.5t-109.5 350t-284.5 135z" />
    <glyph glyph-name="Emacron" unicode="&#x112;" horiz-adv-x="1166" 
d="M900 1768v-65h-584v65h584zM1028 73v-73h-841v1443h841v-73h-762v-594h726v-72h-726v-631h762z" />
    <glyph glyph-name="emacron" unicode="&#x113;" horiz-adv-x="1179" 
d="M888 1422v-66h-585v66h585zM953 249h81q-40 -122 -156.5 -194t-275.5 -72q-220 0 -349.5 150t-129.5 404t129 405t347 151q211 0 334 -141t123 -382v-46h-854v-3q2 -213 111 -340.5t290 -127.5q127 0 221 53t129 143zM598 1023q-171 0 -278.5 -117.5t-116.5 -314.5h773
q-1 196 -104 314t-274 118z" />
    <glyph glyph-name="Ebreve" unicode="&#x114;" horiz-adv-x="1166" 
d="M326 1843h71q0 -84 57.5 -132t153.5 -48t153.5 48t57.5 132h71q0 -114 -76.5 -178.5t-205.5 -64.5t-205.5 64.5t-76.5 178.5zM1028 73v-73h-841v1443h841v-73h-762v-594h726v-72h-726v-631h762z" />
    <glyph glyph-name="ebreve" unicode="&#x115;" horiz-adv-x="1179" 
d="M315 1517h72q0 -93 54.5 -145.5t153.5 -52.5q100 0 154.5 52t54.5 146h72q0 -122 -74 -192t-207 -70q-132 0 -206 70t-74 192zM953 249h81q-40 -122 -156.5 -194t-275.5 -72q-220 0 -349.5 150t-129.5 404t129 405t347 151q211 0 334 -141t123 -382v-46h-854v-3
q2 -213 111 -340.5t290 -127.5q127 0 221 53t129 143zM598 1023q-171 0 -278.5 -117.5t-116.5 -314.5h773q-1 196 -104 314t-274 118z" />
    <glyph glyph-name="Edotaccent" unicode="&#x116;" horiz-adv-x="1166" 
d="M608 1666q-28 0 -47.5 20t-19.5 48t19.5 47.5t47.5 19.5t47.5 -19.5t19.5 -47.5t-19.5 -48t-47.5 -20zM1028 73v-73h-841v1443h841v-73h-762v-594h726v-72h-726v-631h762z" />
    <glyph glyph-name="edotaccent" unicode="&#x117;" horiz-adv-x="1179" 
d="M595 1320q-28 0 -47.5 19.5t-19.5 47.5t19.5 48t47.5 20t48 -20t20 -48t-20 -47.5t-48 -19.5zM953 249h81q-40 -122 -156.5 -194t-275.5 -72q-220 0 -349.5 150t-129.5 404t129 405t347 151q211 0 334 -141t123 -382v-46h-854v-3q2 -213 111 -340.5t290 -127.5
q127 0 221 53t129 143zM598 1023q-171 0 -278.5 -117.5t-116.5 -314.5h773q-1 196 -104 314t-274 118z" />
    <glyph glyph-name="Eogonek" unicode="&#x118;" horiz-adv-x="1166" 
d="M930 -395q-72 0 -123.5 40t-51.5 119q0 120 172 236h-740v1443h841v-73h-762v-594h726v-72h-726v-631h762v-73q-96 -56 -146.5 -109t-50.5 -112q0 -55 33.5 -81t85.5 -26q40 0 81 16v-64q-53 -19 -101 -19z" />
    <glyph glyph-name="eogonek" unicode="&#x119;" horiz-adv-x="1179" 
d="M798 -395q-71 0 -120 39t-49 115q0 105 140 248q-77 -24 -167 -24q-220 0 -349.5 150t-129.5 404t129 405t347 151q211 0 334 -141t123 -382v-46h-854v-3q2 -213 111 -340.5t290 -127.5q127 0 221 53t129 143h81q-23 -72 -77 -130q-16 -16 -34 -31q-108 -103 -163 -178
t-55 -138q0 -47 29.5 -73.5t81.5 -26.5q40 0 83 16v-64q-53 -19 -101 -19zM598 1023q-171 0 -278.5 -117.5t-116.5 -314.5h773q-1 196 -104 314t-274 118z" />
    <glyph glyph-name="Ecaron" unicode="&#x11a;" horiz-adv-x="1166" 
d="M644 1579h-72l-274 296h94l213 -235h6l213 235h94zM1028 73v-73h-841v1443h841v-73h-762v-594h726v-72h-726v-631h762z" />
    <glyph glyph-name="ecaron" unicode="&#x11b;" horiz-adv-x="1179" 
d="M551 1228l-255 321h90l206 -264h6l206 264h91l-255 -321h-89zM953 249h81q-40 -122 -156.5 -194t-275.5 -72q-220 0 -349.5 150t-129.5 404t129 405t347 151q211 0 334 -141t123 -382v-46h-854v-3q2 -213 111 -340.5t290 -127.5q127 0 221 53t129 143zM598 1023
q-171 0 -278.5 -117.5t-116.5 -314.5h773q-1 196 -104 314t-274 118z" />
    <glyph glyph-name="Gcircumflex" unicode="&#x11c;" horiz-adv-x="1476" 
d="M717 1875h72l274 -296h-94l-213 235h-6l-213 -235h-94zM1347 560q0 -269 -158.5 -426.5t-428.5 -157.5q-284 0 -458.5 205.5t-174.5 540.5t171.5 540t454.5 205q220 0 377.5 -120t196.5 -315h-80q-44 167 -176 264t-318 97q-247 0 -396.5 -184.5t-149.5 -486.5
q0 -300 152.5 -486t401.5 -186q235 0 371.5 137t136.5 370v71h-486v71h564v-139z" />
    <glyph glyph-name="gcircumflex" unicode="&#x11d;" horiz-adv-x="1235" 
d="M669 1549l255 -321h-91l-206 264h-6l-206 -264h-91l255 321h90zM605 -391q-171 0 -284 69t-136 186h82q23 -84 115 -135t225 -51q169 0 271 87.5t102 233.5v281h-7q-44 -130 -148 -203t-245 -73q-206 0 -331.5 150t-125.5 394q0 243 126 394t331 151q138 0 246 -78.5
t149 -208.5h7v271h75v-1088q0 -170 -124.5 -275t-327.5 -105zM591 74q177 0 283.5 128.5t106.5 340.5q0 213 -108 346.5t-282 133.5q-176 0 -282.5 -131t-106.5 -343q0 -213 106.5 -344t282.5 -131z" />
    <glyph glyph-name="Gbreve" unicode="&#x11e;" horiz-adv-x="1476" 
d="M471 1843h71q0 -84 57.5 -132t153.5 -48t153.5 48t57.5 132h71q0 -114 -76.5 -178.5t-205.5 -64.5t-205.5 64.5t-76.5 178.5zM1347 560q0 -269 -158.5 -426.5t-428.5 -157.5q-284 0 -458.5 205.5t-174.5 540.5t171.5 540t454.5 205q220 0 377.5 -120t196.5 -315h-80
q-44 167 -176 264t-318 97q-247 0 -396.5 -184.5t-149.5 -486.5q0 -300 152.5 -486t401.5 -186q235 0 371.5 137t136.5 370v71h-486v71h564v-139z" />
    <glyph glyph-name="gbreve" unicode="&#x11f;" horiz-adv-x="1235" 
d="M343 1517h72q0 -93 55 -145.5t154 -52.5t154 52.5t55 145.5h72q0 -122 -74 -192t-207 -70t-207 70t-74 192zM605 -391q-171 0 -284 69t-136 186h82q23 -84 115 -135t225 -51q169 0 271 87.5t102 233.5v281h-7q-44 -130 -148 -203t-245 -73q-206 0 -331.5 150t-125.5 394
q0 243 126 394t331 151q138 0 246 -78.5t149 -208.5h7v271h75v-1088q0 -170 -124.5 -275t-327.5 -105zM591 74q177 0 283.5 128.5t106.5 340.5q0 213 -108 346.5t-282 133.5q-176 0 -282.5 -131t-106.5 -343q0 -213 106.5 -344t282.5 -131z" />
    <glyph glyph-name="Gdotaccent" unicode="&#x120;" horiz-adv-x="1476" 
d="M753 1666q-28 0 -47.5 20t-19.5 48t19.5 47.5t47.5 19.5t48 -19.5t20 -47.5t-20 -48t-48 -20zM1347 560q0 -269 -158.5 -426.5t-428.5 -157.5q-284 0 -458.5 205.5t-174.5 540.5t171.5 540t454.5 205q220 0 377.5 -120t196.5 -315h-80q-44 167 -176 264t-318 97
q-247 0 -396.5 -184.5t-149.5 -486.5q0 -300 152.5 -486t401.5 -186q235 0 371.5 137t136.5 370v71h-486v71h564v-139z" />
    <glyph glyph-name="gdotaccent" unicode="&#x121;" horiz-adv-x="1235" 
d="M624 1320q-28 0 -47.5 19.5t-19.5 47.5t19.5 48t47.5 20t48 -20t20 -48t-20 -47.5t-48 -19.5zM605 -391q-171 0 -284 69t-136 186h82q23 -84 115 -135t225 -51q169 0 271 87.5t102 233.5v281h-7q-44 -130 -148 -203t-245 -73q-206 0 -331.5 150t-125.5 394q0 243 126 394
t331 151q138 0 246 -78.5t149 -208.5h7v271h75v-1088q0 -170 -124.5 -275t-327.5 -105zM591 74q177 0 283.5 128.5t106.5 340.5q0 213 -108 346.5t-282 133.5q-176 0 -282.5 -131t-106.5 -343q0 -213 106.5 -344t282.5 -131z" />
    <glyph glyph-name="Gcommaaccent" unicode="&#x122;" horiz-adv-x="1476" 
d="M1347 560q0 -269 -158.5 -426.5t-428.5 -157.5q-284 0 -458.5 205.5t-174.5 540.5t171.5 540t454.5 205q220 0 377.5 -120t196.5 -315h-80q-44 167 -176 264t-318 97q-247 0 -396.5 -184.5t-149.5 -486.5q0 -300 152.5 -486t401.5 -186q235 0 371.5 137t136.5 370v71
h-486v71h564v-139zM684 -483h-63l96 347h87z" />
    <glyph glyph-name="gcommaaccent" unicode="&#x123;" horiz-adv-x="1235" 
d="M700 1575h64l-96 -347h-87zM605 -391q-171 0 -284 69t-136 186h82q23 -84 115 -135t225 -51q169 0 271 87.5t102 233.5v281h-7q-44 -130 -148 -203t-245 -73q-206 0 -331.5 150t-125.5 394q0 243 126 394t331 151q138 0 246 -78.5t149 -208.5h7v271h75v-1088
q0 -170 -124.5 -275t-327.5 -105zM591 74q177 0 283.5 128.5t106.5 340.5q0 213 -108 346.5t-282 133.5q-176 0 -282.5 -131t-106.5 -343q0 -213 106.5 -344t282.5 -131z" />
    <glyph glyph-name="Hcircumflex" unicode="&#x124;" horiz-adv-x="1445" 
d="M687 1875h71l275 -296h-94l-213 235h-6l-213 -235h-94zM1258 0h-79v705h-913v-705h-79v1443h79v-666h913v666h79v-1443z" />
    <glyph glyph-name="hcircumflex" unicode="&#x125;" horiz-adv-x="1202" 
d="M190 1938h72l274 -296h-94l-213 235h-6l-213 -235h-94zM188 0v1506h77v-657h7q47 116 147 180t235 64q176 0 277 -103.5t101 -285.5v-704h-77v683q0 163 -82 251.5t-234 88.5q-164 0 -269 -107.5t-105 -273.5v-642h-77z" />
    <glyph glyph-name="Hbar" unicode="&#x126;" horiz-adv-x="1445" 
d="M53 1110v72h134v261h79v-261h913v261h79v-261h134v-72h-134v-1110h-79v705h-913v-705h-79v1110h-134zM266 777h913v333h-913v-333z" />
    <glyph glyph-name="hbar" unicode="&#x127;" horiz-adv-x="1202" 
d="M188 0v1277h-160v68h160v161h77v-161h311v-68h-311v-428h7q47 116 147 180t235 64q176 0 277 -103.5t101 -285.5v-704h-77v683q0 163 -82 251.5t-234 88.5q-164 0 -269 -107.5t-105 -273.5v-642h-77z" />
    <glyph glyph-name="Itilde" unicode="&#x128;" horiz-adv-x="453" 
d="M358 1612q-40 0 -72.5 16.5t-54 39.5t-41 46t-44 39.5t-52.5 16.5q-47 0 -76.5 -43.5t-29.5 -115.5h-68q0 101 47.5 162t127.5 61q40 0 72.5 -16.5t54 -40t41.5 -46.5t44.5 -39.5t52.5 -16.5q47 0 76 43.5t29 116.5h68q0 -101 -47.5 -162t-127.5 -61zM266 0h-79v1443h79
v-1443z" />
    <glyph glyph-name="itilde" unicode="&#x129;" horiz-adv-x="449" 
d="M356 1266q-40 0 -72.5 16t-54 39t-41 46.5t-44 39.5t-52.5 16q-47 0 -76.5 -43t-29.5 -115h-68q0 101 47.5 162t127.5 61q40 0 72.5 -16.5t54 -40t41.5 -46.5t44.5 -39.5t52.5 -16.5q47 0 76 43.5t29 116.5h68q0 -101 -47.5 -162t-127.5 -61zM186 0v1077h77v-1077h-77z
" />
    <glyph glyph-name="Imacron" unicode="&#x12a;" horiz-adv-x="453" 
d="M519 1768v-65h-585v65h585zM266 0h-79v1443h79v-1443z" />
    <glyph glyph-name="imacron" unicode="&#x12b;" horiz-adv-x="449" 
d="M473 1422v-66h-497v66h497zM186 0v1077h77v-1077h-77z" />
    <glyph glyph-name="Ibreve" unicode="&#x12c;" horiz-adv-x="453" 
d="M-56 1843h72q0 -85 57 -132.5t153 -47.5q97 0 154 47.5t57 132.5h71q0 -114 -76 -178.5t-206 -64.5q-129 0 -205.5 64.5t-76.5 178.5zM266 0h-79v1443h79v-1443z" />
    <glyph glyph-name="ibreve" unicode="&#x12d;" horiz-adv-x="449" 
d="M-56 1517h72q0 -93 55 -145.5t154 -52.5t153.5 52.5t54.5 145.5h72q0 -122 -74 -192t-206 -70q-133 0 -207 70t-74 192zM186 0v1077h77v-1077h-77z" />
    <glyph glyph-name="Iogonek" unicode="&#x12e;" horiz-adv-x="453" 
d="M168 -395q-72 0 -123.5 40t-51.5 119q0 129 194 251v1428h79v-1443q-96 -56 -146.5 -109t-50.5 -112q0 -55 33.5 -81t84.5 -26q41 0 82 16v-64q-53 -19 -101 -19z" />
    <glyph glyph-name="iogonek" unicode="&#x12f;" horiz-adv-x="449" 
d="M225 1320q-28 0 -48 19.5t-20 47.5t20 48t48 20t47.5 -20t19.5 -48t-19.5 -47.5t-47.5 -19.5zM165 -395q-72 0 -123.5 40t-51.5 119q0 128 196 252v1061h77v-1077q-96 -56 -146.5 -109t-50.5 -112q0 -55 33.5 -81t84.5 -26q41 0 82 16v-64q-53 -19 -101 -19z" />
    <glyph glyph-name="Idotaccent" unicode="&#x130;" horiz-adv-x="453" 
d="M226 1666q-28 0 -47.5 20t-19.5 48t19.5 47.5t47.5 19.5t48 -19.5t20 -47.5t-20 -48t-48 -20zM266 0h-79v1443h79v-1443z" />
    <glyph glyph-name="dotlessi" unicode="&#x131;" horiz-adv-x="449" 
d="M186 0v1077h77v-1077h-77z" />
    <glyph glyph-name="IJ" unicode="&#x132;" horiz-adv-x="1523" 
d="M266 0h-79v1443h79v-1443zM553 320h79q7 -118 93 -194t213 -76q150 0 234 90t84 252v1051h80v-1062q0 -187 -107 -296t-290 -109q-165 0 -273.5 96.5t-112.5 247.5z" />
    <glyph glyph-name="ij" unicode="&#x133;" horiz-adv-x="899" 
d="M225 1320q-28 0 -48 19.5t-20 47.5t20 48t48 20t47.5 -20t19.5 -48t-19.5 -47.5t-47.5 -19.5zM674 1320q-28 0 -47.5 19.5t-19.5 47.5t19.5 48t47.5 20t48 -20t20 -48t-20 -47.5t-48 -19.5zM186 0v1077h77v-1077h-77zM712 1077v-1165q0 -144 -67 -209.5t-199 -65.5h-17
v69h15q99 0 145 48t46 154v1169h77z" />
    <glyph glyph-name="Jcircumflex" unicode="&#x134;" horiz-adv-x="1070" 
d="M807 1875h72l274 -296h-94l-213 235h-6l-213 -235h-94zM100 320h79q7 -118 93 -194t213 -76q150 0 234.5 90t84.5 252v1051h79v-1062q0 -187 -107 -296t-290 -109q-165 0 -273.5 96.5t-112.5 247.5z" />
    <glyph glyph-name="jcircumflex" unicode="&#x135;" horiz-adv-x="449" 
d="M270 1549l255 -321h-91l-206 264h-6l-206 -264h-91l255 321h90zM263 1077v-1165q0 -144 -67 -209.5t-199 -65.5h-18v69h16q99 0 145 48t46 154v1169h77z" />
    <glyph glyph-name="Kcommaaccent" unicode="&#x136;" horiz-adv-x="1260" 
d="M266 0h-79v1443h79v-805h7l750 805h100l-581 -622l647 -821h-102l-600 766l-221 -238v-528zM540 -483h-64l97 347h87z" />
    <glyph glyph-name="kcommaaccent" unicode="&#x137;" horiz-adv-x="1065" 
d="M272 527l603 550h101l-504 -463l514 -614h-100l-474 565l-147 -135v-430h-77v1506h77v-979h7zM479 -483h-64l96 347h87z" />
    <glyph glyph-name="kacyrillic" unicode="&#x43a;" horiz-adv-x="1071" 
d="M316 512h-51v-512h-77v1077h77v-501h51l532 501h100l-564 -529l593 -548h-106z" />
    <glyph glyph-name="kacyrillic" unicode="&#x138;" horiz-adv-x="1071" 
d="M316 512h-51v-512h-77v1077h77v-501h51l532 501h100l-564 -529l593 -548h-106z" />
    <glyph glyph-name="Lacute" unicode="&#x139;" horiz-adv-x="1106" 
d="M265 1578h-74l194 297h96zM1023 73v-73h-836v1443h79v-1370h757z" />
    <glyph glyph-name="lacute" unicode="&#x13a;" horiz-adv-x="453" 
d="M265 1641h-75l195 297h95zM188 0v1506h77v-1506h-77z" />
    <glyph glyph-name="Lcommaaccent" unicode="&#x13b;" horiz-adv-x="1106" 
d="M1023 73v-73h-836v1443h79v-1370h757zM529 -483h-63l96 347h87z" />
    <glyph glyph-name="lcommaaccent" unicode="&#x13c;" horiz-adv-x="453" 
d="M188 0v1506h77v-1506h-77zM150 -483h-64l97 347h87z" />
    <glyph glyph-name="Lcaron" unicode="&#x13d;" horiz-adv-x="1106" 
d="M519 1549h80l-25 -455h-55v455zM1023 73v-73h-836v1443h79v-1370h757z" />
    <glyph glyph-name="lcaron" unicode="&#x13e;" horiz-adv-x="553" 
d="M405 1549h82l-35 -403h-56zM188 0v1506h77v-1506h-77z" />
    <glyph glyph-name="Ldot" unicode="&#x13f;" horiz-adv-x="1106" 
d="M1023 73v-73h-836v1443h79v-1370h757zM679 648q-31 0 -52.5 21.5t-21.5 52.5t21.5 52.5t52.5 21.5t52.5 -21t21.5 -53q0 -31 -21.5 -52.5t-52.5 -21.5z" />
    <glyph glyph-name="ldot" unicode="&#x140;" horiz-adv-x="600" 
d="M188 0v1506h77v-1506h-77zM526 626q-31 0 -52 21.5t-21 52.5t21 52t52 21t52.5 -21t21.5 -52q0 -32 -21 -53t-53 -21z" />
    <glyph glyph-name="Lslash" unicode="&#x141;" horiz-adv-x="1106" 
d="M1023 73v-73h-836v738l-172 -92v69l172 91v637h79v-595l344 184v-69l-344 -183v-707h757z" />
    <glyph glyph-name="lslash" unicode="&#x142;" horiz-adv-x="453" 
d="M188 0v755l-148 -87v72l148 87v679h77v-633l148 87v-72l-148 -87v-801h-77z" />
    <glyph glyph-name="Nacute" unicode="&#x143;" horiz-adv-x="1460" 
d="M768 1578h-74l194 297h96zM266 0h-79v1443h82l918 -1297h7v1297h79v-1443h-75l-925 1304h-7v-1304z" />
    <glyph glyph-name="nacute" unicode="&#x144;" horiz-adv-x="1189" 
d="M634 1228h-74l202 321h94zM178 0v1077h75v-228h7q47 115 146 179.5t233 64.5q179 0 279.5 -103t100.5 -286v-704h-77v683q0 163 -81.5 251.5t-235.5 88.5q-161 0 -265.5 -107.5t-104.5 -273.5v-642h-77z" />
    <glyph glyph-name="Ncommaaccent" unicode="&#x145;" horiz-adv-x="1460" 
d="M266 0h-79v1443h82l918 -1297h7v1297h79v-1443h-75l-925 1304h-7v-1304zM654 -483h-64l96 347h87z" />
    <glyph glyph-name="ncommaaccent" unicode="&#x146;" horiz-adv-x="1189" 
d="M178 0v1077h75v-228h7q47 115 146 179.5t233 64.5q179 0 279.5 -103t100.5 -286v-704h-77v683q0 163 -81.5 251.5t-235.5 88.5q-161 0 -265.5 -107.5t-104.5 -273.5v-642h-77zM522 -483h-63l96 347h87z" />
    <glyph glyph-name="Ncaron" unicode="&#x147;" horiz-adv-x="1460" 
d="M766 1579h-72l-274 296h94l213 -235h6l213 235h94zM266 0h-79v1443h82l918 -1297h7v1297h79v-1443h-75l-925 1304h-7v-1304z" />
    <glyph glyph-name="ncaron" unicode="&#x148;" horiz-adv-x="1189" 
d="M554 1228l-255 321h91l206 -264h6l206 264h90l-254 -321h-90zM178 0v1077h75v-228h7q47 115 146 179.5t233 64.5q179 0 279.5 -103t100.5 -286v-704h-77v683q0 163 -81.5 251.5t-235.5 88.5q-161 0 -265.5 -107.5t-104.5 -273.5v-642h-77z" />
    <glyph glyph-name="eng" unicode="&#x14b;" horiz-adv-x="1189" 
d="M178 0v1077h75v-228h7q47 115 146 179.5t233 64.5q179 0 279.5 -103t100.5 -286v-814q0 -253 -248 -253q-49 0 -87 15v65q30 -10 68 -10q97 0 143.5 43.5t46.5 146.5v786q0 163 -81.5 251.5t-235.5 88.5q-161 0 -265.5 -107.5t-104.5 -273.5v-642h-77z" />
    <glyph glyph-name="Omacron" unicode="&#x14c;" horiz-adv-x="1537" 
d="M1061 1768v-65h-585v65h585zM768 1467q297 0 469.5 -200t172.5 -545t-172 -545.5t-470 -200.5t-469.5 200t-171.5 546q0 344 172.5 544.5t468.5 200.5zM768 1393q-257 0 -409 -182t-152 -489t152 -489.5t409 -182.5t409.5 183t152.5 489q0 307 -152.5 489t-409.5 182z
" />
    <glyph glyph-name="omacron" unicode="&#x14d;" horiz-adv-x="1206" 
d="M895 1422v-66h-585v66h585zM603 -17q-220 0 -350 150t-130 405t130 405t350 150t350 -150t130 -405t-130 -405t-350 -150zM603 54q184 0 292.5 131.5t108.5 352.5q0 222 -108.5 353.5t-292.5 131.5t-292.5 -131t-108.5 -354q0 -222 108.5 -353t292.5 -131z" />
    <glyph glyph-name="Obreve" unicode="&#x14e;" horiz-adv-x="1537" 
d="M486 1843h72q0 -85 57 -132.5t153 -47.5q97 0 154 47.5t57 132.5h71q0 -114 -76 -178.5t-206 -64.5q-129 0 -205.5 64.5t-76.5 178.5zM768 1467q297 0 469.5 -200t172.5 -545t-172 -545.5t-470 -200.5t-469.5 200t-171.5 546q0 344 172.5 544.5t468.5 200.5zM768 1393
q-257 0 -409 -182t-152 -489t152 -489.5t409 -182.5t409.5 183t152.5 489q0 307 -152.5 489t-409.5 182z" />
    <glyph glyph-name="obreve" unicode="&#x14f;" horiz-adv-x="1206" 
d="M322 1517h72q0 -93 55 -145.5t154 -52.5t154 52.5t55 145.5h71q0 -122 -74 -192t-206 -70q-133 0 -207 70t-74 192zM603 -17q-220 0 -350 150t-130 405t130 405t350 150t350 -150t130 -405t-130 -405t-350 -150zM603 54q184 0 292.5 131.5t108.5 352.5
q0 222 -108.5 353.5t-292.5 131.5t-292.5 -131t-108.5 -354q0 -222 108.5 -353t292.5 -131z" />
    <glyph glyph-name="Ohungarumlaut" unicode="&#x150;" horiz-adv-x="1537" 
d="M592 1579l171 296h88l-189 -296h-70zM865 1579l182 296h92l-204 -296h-70zM768 1467q297 0 469.5 -200t172.5 -545t-172 -545.5t-470 -200.5t-469.5 200t-171.5 546q0 344 172.5 544.5t468.5 200.5zM768 1393q-257 0 -409 -182t-152 -489t152 -489.5t409 -182.5
t409.5 183t152.5 489q0 307 -152.5 489t-409.5 182z" />
    <glyph glyph-name="ohungarumlaut" unicode="&#x151;" horiz-adv-x="1206" 
d="M431 1228l166 321h91l-189 -321h-68zM697 1228l185 321h93l-208 -321h-70zM603 -17q-220 0 -350 150t-130 405t130 405t350 150t350 -150t130 -405t-130 -405t-350 -150zM603 54q184 0 292.5 131.5t108.5 352.5q0 222 -108.5 353.5t-292.5 131.5t-292.5 -131t-108.5 -354
q0 -222 108.5 -353t292.5 -131z" />
    <glyph glyph-name="OE" unicode="&#x152;" horiz-adv-x="2315" 
d="M1336 0v375h-8q-64 -190 -211.5 -294.5t-350.5 -104.5q-296 0 -467.5 200t-171.5 546q0 344 172 544.5t467 200.5q201 0 349.5 -104t212.5 -292h8v372h841v-73h-767v-594h731v-72h-731v-631h767v-73h-841zM771 1393q-258 0 -411 -182t-153 -489q0 -308 153 -490t411 -182
q256 0 407 182t151 490t-151 489.5t-407 181.5z" />
    <glyph glyph-name="oe" unicode="&#x153;" horiz-adv-x="2059" 
d="M1482 -17q-166 0 -287.5 98t-148.5 253h-7q-26 -157 -147 -254t-290 -97q-220 0 -349.5 150t-129.5 405t129.5 405.5t349.5 150.5q165 0 285.5 -98t151.5 -256h7q31 158 149.5 255.5t280.5 97.5q208 0 334 -143t126 -380v-45h-854v-3q2 -212 112 -340.5t289 -128.5
q127 0 221 52.5t129 143.5h82q-41 -122 -157.5 -194t-275.5 -72zM1856 591q-1 192 -106.5 312.5t-274.5 120.5q-167 0 -275 -119t-117 -314h773zM202 538q0 -222 108 -353t292 -131t292.5 130t108.5 351q0 223 -109 355.5t-292 132.5q-184 0 -292 -131t-108 -354z" />
    <glyph glyph-name="Racute" unicode="&#x154;" horiz-adv-x="1271" 
d="M606 1578h-75l195 297h95zM266 616v-616h-79v1443h471q214 0 338.5 -110.5t124.5 -301.5q0 -155 -88.5 -261.5t-245.5 -138.5l371 -631h-93l-362 619q-24 -3 -50 -3h-387zM266 1371v-682h387q181 0 284.5 90.5t103.5 249.5t-104.5 250.5t-285.5 91.5h-385z" />
    <glyph glyph-name="racute" unicode="&#x155;" horiz-adv-x="743" 
d="M405 1228h-74l202 321h94zM178 0v1077h75v-201h7q31 100 112.5 158.5t190.5 58.5q67 0 119 -15v-77q-52 18 -126 18q-128 0 -214.5 -98t-86.5 -244v-677h-77z" />
    <glyph glyph-name="Rcommaaccent" unicode="&#x156;" horiz-adv-x="1271" 
d="M266 616v-616h-79v1443h471q214 0 338.5 -110.5t124.5 -301.5q0 -155 -88.5 -261.5t-245.5 -138.5l371 -631h-93l-362 619q-24 -3 -50 -3h-387zM266 1371v-682h387q181 0 284.5 90.5t103.5 249.5t-104.5 250.5t-285.5 91.5h-385zM513 -483h-64l96 347h87z" />
    <glyph glyph-name="rcommaaccent" unicode="&#x157;" horiz-adv-x="743" 
d="M178 0v1077h75v-201h7q31 100 112.5 158.5t190.5 58.5q67 0 119 -15v-77q-52 18 -126 18q-128 0 -214.5 -98t-86.5 -244v-677h-77zM140 -483h-64l97 347h87z" />
    <glyph glyph-name="Rcaron" unicode="&#x158;" horiz-adv-x="1271" 
d="M603 1579h-72l-274 296h94l213 -235h6l213 235h94zM266 616v-616h-79v1443h471q214 0 338.5 -110.5t124.5 -301.5q0 -155 -88.5 -261.5t-245.5 -138.5l371 -631h-93l-362 619q-24 -3 -50 -3h-387zM266 1371v-682h387q181 0 284.5 90.5t103.5 249.5t-104.5 250.5
t-285.5 91.5h-385z" />
    <glyph glyph-name="rcaron" unicode="&#x159;" horiz-adv-x="743" 
d="M325 1228l-255 321h90l206 -264h6l206 264h91l-255 -321h-89zM178 0v1077h75v-201h7q31 100 112.5 158.5t190.5 58.5q67 0 119 -15v-77q-52 18 -126 18q-128 0 -214.5 -98t-86.5 -244v-677h-77z" />
    <glyph glyph-name="Sacute" unicode="&#x15a;" horiz-adv-x="1255" 
d="M666 1578h-74l195 297h95zM116 373h79q11 -140 138.5 -232t308.5 -92t299 93t118 232q0 114 -88.5 191.5t-277.5 123.5l-139 34q-212 52 -306 136t-94 222q0 165 134 275.5t340 110.5q201 0 337 -104t147 -258h-79q-15 124 -127.5 206.5t-279.5 82.5q-169 0 -280 -90
t-111 -221q0 -107 82 -174t269 -112l131 -32q222 -54 322.5 -146.5t100.5 -238.5q0 -177 -140 -290.5t-363 -113.5q-142 0 -258.5 50.5t-186 141.5t-76.5 205z" />
    <glyph glyph-name="sacute" unicode="&#x15b;" horiz-adv-x="1040" 
d="M554 1228h-74l202 321h94zM154 803q0 123 109 206.5t262 83.5t257.5 -72.5t123.5 -193.5h-76q-18 90 -101.5 144t-203.5 54t-207 -63.5t-87 -156.5q0 -79 60 -126.5t189 -76.5l124 -30q166 -39 243 -105t77 -182q0 -131 -113.5 -216.5t-280.5 -85.5q-172 0 -283.5 75.5
t-130.5 205.5h80q22 -99 111.5 -156t224.5 -57q131 0 222 66t91 163q0 89 -62 140t-202 84l-133 31q-151 35 -222.5 98t-71.5 170z" />
    <glyph glyph-name="Scircumflex" unicode="&#x15c;" horiz-adv-x="1255" 
d="M592 1875h72l274 -296h-94l-213 235h-6l-213 -235h-94zM116 373h79q11 -140 138.5 -232t308.5 -92t299 93t118 232q0 114 -88.5 191.5t-277.5 123.5l-139 34q-212 52 -306 136t-94 222q0 165 134 275.5t340 110.5q201 0 337 -104t147 -258h-79q-15 124 -127.5 206.5
t-279.5 82.5q-169 0 -280 -90t-111 -221q0 -107 82 -174t269 -112l131 -32q222 -54 322.5 -146.5t100.5 -238.5q0 -177 -140 -290.5t-363 -113.5q-142 0 -258.5 50.5t-186 141.5t-76.5 205z" />
    <glyph glyph-name="scircumflex" unicode="&#x15d;" horiz-adv-x="1040" 
d="M564 1549l255 -321h-91l-206 264h-6l-206 -264h-91l255 321h90zM154 803q0 123 109 206.5t262 83.5t257.5 -72.5t123.5 -193.5h-76q-18 90 -101.5 144t-203.5 54t-207 -63.5t-87 -156.5q0 -79 60 -126.5t189 -76.5l124 -30q166 -39 243 -105t77 -182
q0 -131 -113.5 -216.5t-280.5 -85.5q-172 0 -283.5 75.5t-130.5 205.5h80q22 -99 111.5 -156t224.5 -57q131 0 222 66t91 163q0 89 -62 140t-202 84l-133 31q-151 35 -222.5 98t-71.5 170z" />
    <glyph glyph-name="Scedilla" unicode="&#x15e;" horiz-adv-x="1255" 
d="M116 373h79q11 -140 138.5 -232t308.5 -92t299 93t118 232q0 114 -88.5 191.5t-277.5 123.5l-139 34q-212 52 -306 136t-94 222q0 165 134 275.5t340 110.5q201 0 337 -104t147 -258h-79q-15 124 -127.5 206.5t-279.5 82.5q-169 0 -280 -90t-111 -221q0 -107 82 -174
t269 -112l131 -32q222 -54 322.5 -146.5t100.5 -238.5q0 -170 -130 -282t-340 -121l-54 -116q98 0 155 -40.5t57 -116.5q0 -79 -62.5 -126t-155.5 -47q-71 0 -139 22v61q55 -22 131 -22q63 0 107 30.5t44 79.5q0 101 -162 101h-50v47l59 127q-203 10 -338.5 120t-145.5 276z
" />
    <glyph glyph-name="scedilla" unicode="&#x15f;" horiz-adv-x="1040" 
d="M434 -197v47l61 134q-159 8 -260.5 82t-118.5 198h80q22 -99 111.5 -156t224.5 -57q131 0 222 66t91 163q0 89 -62 140t-202 84l-133 31q-151 35 -222.5 98t-71.5 170q0 123 109 206.5t262 83.5t257.5 -72.5t123.5 -193.5h-76q-18 90 -101.5 144t-203.5 54t-207 -63.5
t-87 -156.5q0 -79 60 -126.5t189 -76.5l124 -30q166 -39 243 -105t77 -182q0 -123 -102 -207t-256 -94l-58 -123q98 0 155.5 -40.5t57.5 -116.5q0 -79 -63 -126t-156 -47q-70 0 -138 22v61q53 -22 130 -22q64 0 108 30t44 80q0 101 -162 101h-50z" />
    <glyph glyph-name="Scaron" unicode="&#x160;" horiz-adv-x="1255" 
d="M664 1579h-72l-274 296h94l213 -235h6l213 235h94zM116 373h79q11 -140 138.5 -232t308.5 -92t299 93t118 232q0 114 -88.5 191.5t-277.5 123.5l-139 34q-212 52 -306 136t-94 222q0 165 134 275.5t340 110.5q201 0 337 -104t147 -258h-79q-15 124 -127.5 206.5
t-279.5 82.5q-169 0 -280 -90t-111 -221q0 -107 82 -174t269 -112l131 -32q222 -54 322.5 -146.5t100.5 -238.5q0 -177 -140 -290.5t-363 -113.5q-142 0 -258.5 50.5t-186 141.5t-76.5 205z" />
    <glyph glyph-name="scaron" unicode="&#x161;" horiz-adv-x="1040" 
d="M474 1228l-255 321h91l206 -264h6l206 264h91l-255 -321h-90zM154 803q0 123 109 206.5t262 83.5t257.5 -72.5t123.5 -193.5h-76q-18 90 -101.5 144t-203.5 54t-207 -63.5t-87 -156.5q0 -79 60 -126.5t189 -76.5l124 -30q166 -39 243 -105t77 -182q0 -131 -113.5 -216.5
t-280.5 -85.5q-172 0 -283.5 75.5t-130.5 205.5h80q22 -99 111.5 -156t224.5 -57q131 0 222 66t91 163q0 89 -62 140t-202 84l-133 31q-151 35 -222.5 98t-71.5 170z" />
    <glyph glyph-name="Tcedilla" unicode="&#x162;" horiz-adv-x="1256" 
d="M528 -197v47l69 150h-8v1370h-509v73h1096v-73h-508v-1370l-65 -139q98 0 155.5 -40.5t57.5 -116.5q0 -79 -63 -126t-156 -47q-71 0 -139 22v61q55 -22 131 -22q63 0 107 30.5t44 79.5q0 101 -162 101h-50z" />
    <glyph glyph-name="tcedilla" unicode="&#x163;" horiz-adv-x="696" 
d="M302 -197v47l75 163q-71 22 -103.5 79.5t-32.5 159.5v757h-178v68h178v280h77v-280h262v-68h-262v-745q0 -105 43 -151t142 -46q59 0 77 2v-68q-15 -3 -83 -3q-20 0 -56 2l-65 -139q98 0 155.5 -40.5t57.5 -116.5q0 -79 -63 -126t-156 -47q-70 0 -138 22v61
q55 -22 130 -22q64 0 108 30t44 80q0 101 -162 101h-50z" />
    <glyph glyph-name="Tcaron" unicode="&#x164;" horiz-adv-x="1256" 
d="M664 1579h-72l-274 296h94l213 -235h6l213 235h94zM668 0h-79v1370h-509v73h1096v-73h-508v-1370z" />
    <glyph glyph-name="tcaron" unicode="&#x165;" horiz-adv-x="696" 
d="M468 1605h81l-35 -404h-55zM241 1357h77v-280h262v-68h-262v-745q0 -105 43 -151t142 -46q59 0 77 2v-68q-15 -3 -83 -3q-137 0 -196.5 59t-59.5 195v757h-178v68h178v280z" />
    <glyph glyph-name="Tbar" unicode="&#x166;" horiz-adv-x="1256" 
d="M668 0h-79v686h-372v72h372v612h-509v73h1096v-73h-508v-612h371v-72h-371v-686z" />
    <glyph glyph-name="tbar" unicode="&#x167;" horiz-adv-x="696" 
d="M56 588v68h185v353h-178v68h178v280h77v-280h262v-68h-262v-353h255v-68h-255v-324q0 -105 43 -151t142 -46q59 0 77 2v-68q-15 -3 -83 -3q-137 0 -196.5 59t-59.5 195v336h-185z" />
    <glyph glyph-name="Utilde" unicode="&#x168;" horiz-adv-x="1451" 
d="M857 1612q-40 0 -72.5 16.5t-54 39.5t-41 46t-44 39.5t-52.5 16.5q-47 0 -76.5 -43.5t-29.5 -115.5h-68q0 101 47.5 162t127.5 61q40 0 72.5 -16.5t54 -40t41.5 -46.5t44.5 -39.5t52.5 -16.5q47 0 76 43.5t29 116.5h68q0 -101 -47.5 -162t-127.5 -61zM266 1443v-934
q0 -204 126 -327.5t333 -123.5t333.5 123.5t126.5 327.5v934h80v-937q0 -239 -147 -380.5t-393 -141.5t-392.5 141.5t-146.5 380.5v937h80z" />
    <glyph glyph-name="utilde" unicode="&#x169;" horiz-adv-x="1189" 
d="M722 1266q-40 0 -72.5 16t-53.5 39t-40.5 46.5t-44 39.5t-53.5 16q-47 0 -76 -43t-29 -115h-69q0 101 48 162t127 61q40 0 72.5 -16.5t54 -40t41.5 -46.5t44.5 -39.5t52.5 -16.5q48 0 76.5 43.5t28.5 116.5h69q0 -102 -47.5 -162.5t-128.5 -60.5zM1011 1077v-1077h-73
v227h-8q-39 -114 -138 -179t-235 -65q-177 0 -282 106t-105 284v704h77v-683q0 -158 87 -249t238 -91q162 0 262 105.5t100 274.5v643h77z" />
    <glyph glyph-name="Umacron" unicode="&#x16a;" horiz-adv-x="1451" 
d="M1018 1768v-65h-585v65h585zM266 1443v-934q0 -204 126 -327.5t333 -123.5t333.5 123.5t126.5 327.5v934h80v-937q0 -239 -147 -380.5t-393 -141.5t-392.5 141.5t-146.5 380.5v937h80z" />
    <glyph glyph-name="umacron" unicode="&#x16b;" horiz-adv-x="1189" 
d="M883 1422v-66h-585v66h585zM1011 1077v-1077h-73v227h-8q-39 -114 -138 -179t-235 -65q-177 0 -282 106t-105 284v704h77v-683q0 -158 87 -249t238 -91q162 0 262 105.5t100 274.5v643h77z" />
    <glyph glyph-name="Ubreve" unicode="&#x16c;" horiz-adv-x="1451" 
d="M443 1843h72q0 -85 57 -132.5t153 -47.5q97 0 154 47.5t57 132.5h71q0 -114 -76 -178.5t-206 -64.5q-129 0 -205.5 64.5t-76.5 178.5zM266 1443v-934q0 -204 126 -327.5t333 -123.5t333.5 123.5t126.5 327.5v934h80v-937q0 -239 -147 -380.5t-393 -141.5t-392.5 141.5
t-146.5 380.5v937h80z" />
    <glyph glyph-name="ubreve" unicode="&#x16d;" horiz-adv-x="1189" 
d="M310 1517h72q0 -93 55 -145.5t154 -52.5t154 52.5t55 145.5h71q0 -122 -74 -192t-206 -70q-133 0 -207 70t-74 192zM1011 1077v-1077h-73v227h-8q-39 -114 -138 -179t-235 -65q-177 0 -282 106t-105 284v704h77v-683q0 -158 87 -249t238 -91q162 0 262 105.5t100 274.5
v643h77z" />
    <glyph glyph-name="Uring" unicode="&#x16e;" horiz-adv-x="1451" 
d="M725 1560q-70 0 -118 48t-48 118t48.5 118t117.5 48q70 0 118.5 -48t48.5 -118t-48 -118t-119 -48zM725 1614q50 0 81.5 32.5t31.5 79.5q0 48 -31 80t-82 32q-50 0 -81 -32t-31 -80q0 -46 31 -79t81 -33zM266 1443v-934q0 -204 126 -327.5t333 -123.5t333.5 123.5
t126.5 327.5v934h80v-937q0 -239 -147 -380.5t-393 -141.5t-392.5 141.5t-146.5 380.5v937h80z" />
    </font>
</defs>
</svg>
