<?xml version="1.0" standalone="no"?>
<!DOCTYPE svg PUBLIC "-//W3C//DTD SVG 1.1//EN" "http://www.w3.org/Graphics/SVG/1.1/DTD/svg11.dtd" >
<svg>
<metadata>
Created by FontForge 20120731 at Wed Mar 19 15:23:28 2025
 By www
(c) 2015 Apple Inc. All rights reserved.
</metadata>
<defs>
<font id="SFProText-Medium" horiz-adv-x="1800" >
  <font-face 
    font-family="SF Pro Text"
    font-weight="500"
    font-stretch="normal"
    units-per-em="2048"
    panose-1="0 0 6 0 0 0 0 0 0 0"
    ascent="1638"
    descent="-410"
    x-height="1089"
    cap-height="1443"
    bbox="-620 -572 2731 2212"
    underline-thickness="154"
    underline-position="-219"
    unicode-range="U+0020-1F189"
  />
<missing-glyph horiz-adv-x="2048" 
d="M100 -494v247h1848v-247h-1848zM100 -55v247h1848v-247h-1848zM100 385v247h1848v-247h-1848zM100 824v247h1848v-247h-1848zM100 1264v247h1848v-247h-1848zM100 1703v247h1848v-247h-1848z" />
    <glyph glyph-name="uni2460" unicode="&#x31;&#x25cb;" 
d="M1012 385h-156v545h-7l-163 -111v143l170 116h156v-693zM900 99q128 0 243.5 49t197.5 132.5t130 198t48 241.5t-48 241.5t-130 198t-197.5 132.5t-243.5 49t-243.5 -49t-197.5 -132.5t-130 -198t-48 -241.5t48 -241.5t130 -198t197.5 -132.5t243.5 -49zM900 -52
q-157 0 -300 61t-246.5 164.5t-164.5 246.5t-61 301q0 157 61 300.5t164.5 247t246.5 164.5t300 61t300 -61t246.5 -164.5t164.5 -247t61 -300.5q0 -158 -61 -301t-164.5 -246.5t-246.5 -164.5t-300 -61z" />
    <glyph glyph-name="uni2461" unicode="&#x32;&#x25cb;" 
d="M794 864h-146v4q0 94 66.5 158t186.5 64q112 0 180.5 -56t68.5 -143q0 -41 -19.5 -80.5t-42 -66t-66.5 -70.5l-154 -154v-7h295v-128h-508v99l262 260q27 28 40.5 43.5t26.5 41t13 49.5q0 38 -28.5 62t-71.5 24q-48 0 -75.5 -27.5t-27.5 -68.5v-4zM900 99q128 0 243.5 49
t197.5 132.5t130 198t48 241.5t-48 241.5t-130 198t-197.5 132.5t-243.5 49t-243.5 -49t-197.5 -132.5t-130 -198t-48 -241.5t48 -241.5t130 -198t197.5 -132.5t243.5 -49zM900 -52q-157 0 -300 61t-246.5 164.5t-164.5 246.5t-61 301q0 157 61 300.5t164.5 247t246.5 164.5
t300 61t300 -61t246.5 -164.5t164.5 -247t61 -300.5q0 -158 -61 -301t-164.5 -246.5t-246.5 -164.5t-300 -61z" />
    <glyph glyph-name="uni2462" unicode="&#x33;&#x25cb;" 
d="M822 680v120h74q46 0 76 25t30 63q-1 37 -30.5 60t-75.5 23q-47 0 -77 -24t-32 -59h-144q3 91 70 146t186 56q114 0 183 -50.5t71 -131.5q1 -62 -42 -104.5t-92 -50.5v-8q59 -6 106.5 -49t48.5 -116q1 -95 -77.5 -151t-200.5 -56q-120 0 -191.5 57t-73.5 146h142
q4 -36 38 -59t85 -23q56 0 90.5 26t34.5 68q-1 41 -34 66.5t-88 25.5h-77zM900 99q128 0 243.5 49t197.5 132.5t130 198t48 241.5t-48 241.5t-130 198t-197.5 132.5t-243.5 49t-243.5 -49t-197.5 -132.5t-130 -198t-48 -241.5t48 -241.5t130 -198t197.5 -132.5t243.5 -49z
M900 -52q-157 0 -300 61t-246.5 164.5t-164.5 246.5t-61 301q0 157 61 300.5t164.5 247t246.5 164.5t300 61t300 -61t246.5 -164.5t164.5 -247t61 -300.5q0 -158 -61 -301t-164.5 -246.5t-246.5 -164.5t-300 -61z" />
    <glyph glyph-name="uni2463" unicode="&#x34;&#x25cb;" 
d="M856 1078h219v-445h92v-124h-92v-124h-139v124h-350v126q29 52 66 114t63 103.5t73 117t68 108.5zM725 633h211v329h-9q-138 -213 -202 -326v-3zM900 99q128 0 243.5 49t197.5 132.5t130 198t48 241.5t-48 241.5t-130 198t-197.5 132.5t-243.5 49t-243.5 -49
t-197.5 -132.5t-130 -198t-48 -241.5t48 -241.5t130 -198t197.5 -132.5t243.5 -49zM900 -52q-157 0 -300 61t-246.5 164.5t-164.5 246.5t-61 301q0 157 61 300.5t164.5 247t246.5 164.5t300 61t300 -61t246.5 -164.5t164.5 -247t61 -300.5q0 -158 -61 -301t-164.5 -246.5
t-246.5 -164.5t-300 -61z" />
    <glyph glyph-name="uni2464" unicode="&#x35;&#x25cb;" 
d="M644 575h144q8 -37 42 -57t79 -20q50 0 86.5 33t36.5 88q0 50 -36 81.5t-88 31.5q-41 0 -70 -17.5t-42 -41.5h-137l30 408h451v-122h-329l-16 -174h8q14 24 53.5 43t94.5 19q99 0 165 -60.5t66 -163.5q0 -112 -76 -180t-201 -68q-113 0 -185 56.5t-76 143.5zM900 99
q128 0 243.5 49t197.5 132.5t130 198t48 241.5t-48 241.5t-130 198t-197.5 132.5t-243.5 49t-243.5 -49t-197.5 -132.5t-130 -198t-48 -241.5t48 -241.5t130 -198t197.5 -132.5t243.5 -49zM900 -52q-157 0 -300 61t-246.5 164.5t-164.5 246.5t-61 301q0 157 61 300.5
t164.5 247t246.5 164.5t300 61t300 -61t246.5 -164.5t164.5 -247t61 -300.5q0 -158 -61 -301t-164.5 -246.5t-246.5 -164.5t-300 -61z" />
    <glyph glyph-name="uni2465" unicode="&#x36;&#x25cb;" 
d="M1170 623q0 -112 -74.5 -181t-194.5 -69q-121 0 -197 70.5t-76 184.5q0 123 98 261q9 15 65 88.5t78 100.5h179q-29 -34 -101 -124.5t-86 -111.5q-13 -17 -26 -39l9 -2q42 39 115 39q91 0 151 -61.5t60 -155.5zM780 615q0 -49 34 -82t86 -33t86 33t34 82q0 50 -34 83
t-86 33t-86 -33t-34 -83zM900 99q128 0 243.5 49t197.5 132.5t130 198t48 241.5t-48 241.5t-130 198t-197.5 132.5t-243.5 49t-243.5 -49t-197.5 -132.5t-130 -198t-48 -241.5t48 -241.5t130 -198t197.5 -132.5t243.5 -49zM900 -52q-157 0 -300 61t-246.5 164.5
t-164.5 246.5t-61 301q0 157 61 300.5t164.5 247t246.5 164.5t300 61t300 -61t246.5 -164.5t164.5 -247t61 -300.5q0 -158 -61 -301t-164.5 -246.5t-246.5 -164.5t-300 -61z" />
    <glyph glyph-name="uni2466" unicode="&#x37;&#x25cb;" 
d="M660 1071h509v-130l-288 -563h-164l295 558v6h-352v129zM900 99q128 0 243.5 49t197.5 132.5t130 198t48 241.5t-48 241.5t-130 198t-197.5 132.5t-243.5 49t-243.5 -49t-197.5 -132.5t-130 -198t-48 -241.5t48 -241.5t130 -198t197.5 -132.5t243.5 -49zM900 -52
q-157 0 -300 61t-246.5 164.5t-164.5 246.5t-61 301q0 157 61 300.5t164.5 247t246.5 164.5t300 61t300 -61t246.5 -164.5t164.5 -247t61 -300.5q0 -158 -61 -301t-164.5 -246.5t-246.5 -164.5t-300 -61z" />
    <glyph glyph-name="uni2467" unicode="&#x38;&#x25cb;" 
d="M900 484q56 0 92.5 29.5t36.5 75.5t-36 75.5t-93 29.5t-93.5 -30t-36.5 -75q0 -46 36.5 -75.5t93.5 -29.5zM900 797q47 0 77.5 26t30.5 66q0 39 -30.5 64.5t-77.5 25.5t-77.5 -25.5t-30.5 -64.5q0 -40 30.5 -66t77.5 -26zM898 373q-129 0 -206.5 56t-77.5 149
q0 64 42 110.5t111 59.5v6q-59 18 -91.5 57.5t-32.5 94.5q0 82 71.5 133t185.5 51t185.5 -51t71.5 -133q0 -55 -32.5 -95t-91.5 -57v-6q69 -13 111 -59.5t42 -110.5q0 -93 -79.5 -149t-208.5 -56zM900 99q128 0 243.5 49t197.5 132.5t130 198t48 241.5t-48 241.5t-130 198
t-197.5 132.5t-243.5 49t-243.5 -49t-197.5 -132.5t-130 -198t-48 -241.5t48 -241.5t130 -198t197.5 -132.5t243.5 -49zM900 -52q-157 0 -300 61t-246.5 164.5t-164.5 246.5t-61 301q0 157 61 300.5t164.5 247t246.5 164.5t300 61t300 -61t246.5 -164.5t164.5 -247
t61 -300.5q0 -158 -61 -301t-164.5 -246.5t-246.5 -164.5t-300 -61z" />
    <glyph glyph-name="uni2468" unicode="&#x39;&#x25cb;" 
d="M629 841q0 111 74.5 180t194.5 69q121 0 196.5 -70.5t75.5 -184.5q0 -123 -97 -261q-9 -15 -66.5 -90.5t-76.5 -97.5h-179q27 32 100 123t87 112q11 14 26 40l-9 1q-44 -39 -116 -39q-91 0 -150.5 62t-59.5 156zM1019 848q0 50 -34 82.5t-86 32.5t-86.5 -32.5
t-34.5 -82.5t34.5 -82.5t86.5 -32.5t86 32.5t34 82.5zM900 99q128 0 243.5 49t197.5 132.5t130 198t48 241.5t-48 241.5t-130 198t-197.5 132.5t-243.5 49t-243.5 -49t-197.5 -132.5t-130 -198t-48 -241.5t48 -241.5t130 -198t197.5 -132.5t243.5 -49zM900 -52
q-157 0 -300 61t-246.5 164.5t-164.5 246.5t-61 301q0 157 61 300.5t164.5 247t246.5 164.5t300 61t300 -61t246.5 -164.5t164.5 -247t61 -300.5q0 -158 -61 -301t-164.5 -246.5t-246.5 -164.5t-300 -61z" />
    <glyph glyph-name="uni24B6" unicode="A&#x25cb;" 
d="M808 688h184l-86 266h-12zM725 408h-156l240 693h182l240 -693h-156l-53 163h-244zM900 99q128 0 243.5 49t197.5 132.5t130 198t48 241.5t-48 241.5t-130 198t-197.5 132.5t-243.5 49t-243.5 -49t-197.5 -132.5t-130 -198t-48 -241.5t48 -241.5t130 -198t197.5 -132.5
t243.5 -49zM900 -52q-157 0 -300 61t-246.5 164.5t-164.5 246.5t-61 301q0 157 61 300.5t164.5 247t246.5 164.5t300 61t300 -61t246.5 -164.5t164.5 -247t61 -300.5q0 -158 -61 -301t-164.5 -246.5t-246.5 -164.5t-300 -61z" />
    <glyph glyph-name="uni24B7" unicode="B&#x25cb;" 
d="M651 385v693h312q98 0 155.5 -46t57.5 -125q0 -59 -34.5 -98.5t-91.5 -52.5v-6q73 -9 117.5 -53.5t44.5 -117.5q0 -89 -68.5 -141.5t-179.5 -52.5h-313zM801 967v-174h91q135 0 135 89q0 39 -27.5 62t-75.5 23h-123zM801 693v-193h102q81 0 117.5 23t36.5 71
q0 46 -33 72.5t-92 26.5h-131zM900 99q128 0 243.5 49t197.5 132.5t130 198t48 241.5t-48 241.5t-130 198t-197.5 132.5t-243.5 49t-243.5 -49t-197.5 -132.5t-130 -198t-48 -241.5t48 -241.5t130 -198t197.5 -132.5t243.5 -49zM900 -52q-157 0 -300 61t-246.5 164.5
t-164.5 246.5t-61 301q0 157 61 300.5t164.5 247t246.5 164.5t300 61t300 -61t246.5 -164.5t164.5 -247t61 -300.5q0 -158 -61 -301t-164.5 -246.5t-246.5 -164.5t-300 -61z" />
    <glyph glyph-name="uni24B8" unicode="C&#x25cb;" 
d="M1054 619h152q-14 -111 -97.5 -178.5t-209.5 -67.5q-147 0 -238 98t-91 260t91 260.5t238 98.5q129 0 212.5 -69.5t95.5 -183.5h-149q-7 53 -51 87.5t-106 34.5q-80 0 -128 -62t-48 -166t48 -165.5t128 -61.5q60 0 103 32.5t50 82.5zM900 99q128 0 243.5 49t197.5 132.5
t130 198t48 241.5t-48 241.5t-130 198t-197.5 132.5t-243.5 49t-243.5 -49t-197.5 -132.5t-130 -198t-48 -241.5t48 -241.5t130 -198t197.5 -132.5t243.5 -49zM900 -52q-157 0 -300 61t-246.5 164.5t-164.5 246.5t-61 301q0 157 61 300.5t164.5 247t246.5 164.5t300 61
t300 -61t246.5 -164.5t164.5 -247t61 -300.5q0 -158 -61 -301t-164.5 -246.5t-246.5 -164.5t-300 -61z" />
    <glyph glyph-name="uni24B9" unicode="D&#x25cb;" 
d="M646 1078h272q160 0 241.5 -88.5t81.5 -256.5t-81.5 -258t-241.5 -90h-272v693zM799 952v-440h97q96 0 141.5 54t45.5 165q0 112 -46 166.5t-141 54.5h-97zM900 99q128 0 243.5 49t197.5 132.5t130 198t48 241.5t-48 241.5t-130 198t-197.5 132.5t-243.5 49t-243.5 -49
t-197.5 -132.5t-130 -198t-48 -241.5t48 -241.5t130 -198t197.5 -132.5t243.5 -49zM900 -52q-157 0 -300 61t-246.5 164.5t-164.5 246.5t-61 301q0 157 61 300.5t164.5 247t246.5 164.5t300 61t300 -61t246.5 -164.5t164.5 -247t61 -300.5q0 -158 -61 -301t-164.5 -246.5
t-246.5 -164.5t-300 -61z" />
    <glyph glyph-name="uni24BA" unicode="E&#x25cb;" 
d="M1143 511v-126h-472v693h472v-125h-321v-161h302v-114h-302v-167h321zM900 99q128 0 243.5 49t197.5 132.5t130 198t48 241.5t-48 241.5t-130 198t-197.5 132.5t-243.5 49t-243.5 -49t-197.5 -132.5t-130 -198t-48 -241.5t48 -241.5t130 -198t197.5 -132.5t243.5 -49z
M900 -52q-157 0 -300 61t-246.5 164.5t-164.5 246.5t-61 301q0 157 61 300.5t164.5 247t246.5 164.5t300 61t300 -61t246.5 -164.5t164.5 -247t61 -300.5q0 -158 -61 -301t-164.5 -246.5t-246.5 -164.5t-300 -61z" />
    <glyph glyph-name="uni24BB" unicode="F&#x25cb;" 
d="M852 385h-155v693h468v-127h-313v-173h286v-126h-286v-267zM900 99q128 0 243.5 49t197.5 132.5t130 198t48 241.5t-48 241.5t-130 198t-197.5 132.5t-243.5 49t-243.5 -49t-197.5 -132.5t-130 -198t-48 -241.5t48 -241.5t130 -198t197.5 -132.5t243.5 -49zM900 -52
q-157 0 -300 61t-246.5 164.5t-164.5 246.5t-61 301q0 157 61 300.5t164.5 247t246.5 164.5t300 61t300 -61t246.5 -164.5t164.5 -247t61 -300.5q0 -158 -61 -301t-164.5 -246.5t-246.5 -164.5t-300 -61z" />
    <glyph glyph-name="uni24BC" unicode="G&#x25cb;" 
d="M1057 608v44h-148v108h293v-121q0 -119 -79.5 -192.5t-222.5 -73.5q-148 0 -239 99t-91 259q0 161 91 260t239 99q124 0 208.5 -65t97.5 -172h-151q-7 49 -50 80t-102 31q-81 0 -129.5 -63.5t-48.5 -169.5t48.5 -170t129.5 -64q73 0 113.5 30.5t40.5 80.5zM900 99
q128 0 243.5 49t197.5 132.5t130 198t48 241.5t-48 241.5t-130 198t-197.5 132.5t-243.5 49t-243.5 -49t-197.5 -132.5t-130 -198t-48 -241.5t48 -241.5t130 -198t197.5 -132.5t243.5 -49zM900 -52q-157 0 -300 61t-246.5 164.5t-164.5 246.5t-61 301q0 157 61 300.5
t164.5 247t246.5 164.5t300 61t300 -61t246.5 -164.5t164.5 -247t61 -300.5q0 -158 -61 -301t-164.5 -246.5t-246.5 -164.5t-300 -61z" />
    <glyph glyph-name="uni24BD" unicode="H&#x25cb;" 
d="M1198 385h-151v287h-293v-287h-151v693h151v-276h293v276h151v-693zM900 99q128 0 243.5 49t197.5 132.5t130 198t48 241.5t-48 241.5t-130 198t-197.5 132.5t-243.5 49t-243.5 -49t-197.5 -132.5t-130 -198t-48 -241.5t48 -241.5t130 -198t197.5 -132.5t243.5 -49z
M900 -52q-157 0 -300 61t-246.5 164.5t-164.5 246.5t-61 301q0 157 61 300.5t164.5 247t246.5 164.5t300 61t300 -61t246.5 -164.5t164.5 -247t61 -300.5q0 -158 -61 -301t-164.5 -246.5t-246.5 -164.5t-300 -61z" />
    <glyph glyph-name="uni24BE" unicode="I&#x25cb;" 
d="M981 385h-162v693h162v-693zM900 99q128 0 243.5 49t197.5 132.5t130 198t48 241.5t-48 241.5t-130 198t-197.5 132.5t-243.5 49t-243.5 -49t-197.5 -132.5t-130 -198t-48 -241.5t48 -241.5t130 -198t197.5 -132.5t243.5 -49zM900 -52q-157 0 -300 61t-246.5 164.5
t-164.5 246.5t-61 301q0 157 61 300.5t164.5 247t246.5 164.5t300 61t300 -61t246.5 -164.5t164.5 -247t61 -300.5q0 -158 -61 -301t-164.5 -246.5t-246.5 -164.5t-300 -61z" />
    <glyph glyph-name="uni24BF" unicode="J&#x25cb;" 
d="M624 596h150q1 -40 25.5 -63.5t65.5 -23.5q95 0 95 104v460h155v-459q0 -117 -66 -181.5t-182 -64.5q-114 0 -178.5 63.5t-64.5 164.5zM900 99q128 0 243.5 49t197.5 132.5t130 198t48 241.5t-48 241.5t-130 198t-197.5 132.5t-243.5 49t-243.5 -49t-197.5 -132.5
t-130 -198t-48 -241.5t48 -241.5t130 -198t197.5 -132.5t243.5 -49zM900 -52q-157 0 -300 61t-246.5 164.5t-164.5 246.5t-61 301q0 157 61 300.5t164.5 247t246.5 164.5t300 61t300 -61t246.5 -164.5t164.5 -247t61 -300.5q0 -158 -61 -301t-164.5 -246.5t-246.5 -164.5
t-300 -61z" />
    <glyph glyph-name="uni24C0" unicode="K&#x25cb;" 
d="M1222 1078l-251 -305l260 -388h-182l-193 287l-73 -80v-207h-148v693h148v-298h8l261 298h170zM900 99q128 0 243.5 49t197.5 132.5t130 198t48 241.5t-48 241.5t-130 198t-197.5 132.5t-243.5 49t-243.5 -49t-197.5 -132.5t-130 -198t-48 -241.5t48 -241.5t130 -198
t197.5 -132.5t243.5 -49zM900 -52q-157 0 -300 61t-246.5 164.5t-164.5 246.5t-61 301q0 157 61 300.5t164.5 247t246.5 164.5t300 61t300 -61t246.5 -164.5t164.5 -247t61 -300.5q0 -158 -61 -301t-164.5 -246.5t-246.5 -164.5t-300 -61z" />
    <glyph glyph-name="uni24C1" unicode="L&#x25cb;" 
d="M1173 525v-135h-461v693h157v-558h304zM900 99q128 0 243.5 49t197.5 132.5t130 198t48 241.5t-48 241.5t-130 198t-197.5 132.5t-243.5 49t-243.5 -49t-197.5 -132.5t-130 -198t-48 -241.5t48 -241.5t130 -198t197.5 -132.5t243.5 -49zM900 -52q-157 0 -300 61
t-246.5 164.5t-164.5 246.5t-61 301q0 157 61 300.5t164.5 247t246.5 164.5t300 61t300 -61t246.5 -164.5t164.5 -247t61 -300.5q0 -158 -61 -301t-164.5 -246.5t-246.5 -164.5t-300 -61z" />
    <glyph glyph-name="uni24C2" unicode="M&#x25cb;" 
d="M679 385h-130v693h153l197 -496h4l197 496h151v-693h-129v450h-10l-165 -421h-93l-166 421h-9v-450zM900 99q128 0 243.5 49t197.5 132.5t130 198t48 241.5t-48 241.5t-130 198t-197.5 132.5t-243.5 49t-243.5 -49t-197.5 -132.5t-130 -198t-48 -241.5t48 -241.5
t130 -198t197.5 -132.5t243.5 -49zM900 -52q-157 0 -300 61t-246.5 164.5t-164.5 246.5t-61 301q0 157 61 300.5t164.5 247t246.5 164.5t300 61t300 -61t246.5 -164.5t164.5 -247t61 -300.5q0 -158 -61 -301t-164.5 -246.5t-246.5 -164.5t-300 -61z" />
    <glyph glyph-name="uni24C3" unicode="N&#x25cb;" 
d="M749 385h-141v693h123l311 -437h9v437h141v-693h-123l-312 441h-8v-441zM900 99q128 0 243.5 49t197.5 132.5t130 198t48 241.5t-48 241.5t-130 198t-197.5 132.5t-243.5 49t-243.5 -49t-197.5 -132.5t-130 -198t-48 -241.5t48 -241.5t130 -198t197.5 -132.5t243.5 -49z
M900 -52q-157 0 -300 61t-246.5 164.5t-164.5 246.5t-61 301q0 157 61 300.5t164.5 247t246.5 164.5t300 61t300 -61t246.5 -164.5t164.5 -247t61 -300.5q0 -158 -61 -301t-164.5 -246.5t-246.5 -164.5t-300 -61z" />
    <glyph glyph-name="uni24C4" unicode="O&#x25cb;" 
d="M900 504q76 0 125.5 59.5t49.5 167.5t-49.5 168t-125.5 60t-125.5 -60t-49.5 -168t49.5 -167.5t125.5 -59.5zM900 373q-143 0 -237 95.5t-94 262.5t94 263t237 96t237 -96t94 -263t-94 -262.5t-237 -95.5zM900 99q128 0 243.5 49t197.5 132.5t130 198t48 241.5t-48 241.5
t-130 198t-197.5 132.5t-243.5 49t-243.5 -49t-197.5 -132.5t-130 -198t-48 -241.5t48 -241.5t130 -198t197.5 -132.5t243.5 -49zM900 -52q-157 0 -300 61t-246.5 164.5t-164.5 246.5t-61 301q0 157 61 300.5t164.5 247t246.5 164.5t300 61t300 -61t246.5 -164.5t164.5 -247
t61 -300.5q0 -158 -61 -301t-164.5 -246.5t-246.5 -164.5t-300 -61z" />
    <glyph glyph-name="uni24C5" unicode="P&#x25cb;" 
d="M966 1078q114 0 180.5 -66t66.5 -172t-67 -171t-182 -65h-138v-219h-155v693h295zM1058 840q0 55 -31 84.5t-88 29.5h-117v-228h117q57 0 88 29.5t31 84.5zM900 99q128 0 243.5 49t197.5 132.5t130 198t48 241.5t-48 241.5t-130 198t-197.5 132.5t-243.5 49t-243.5 -49
t-197.5 -132.5t-130 -198t-48 -241.5t48 -241.5t130 -198t197.5 -132.5t243.5 -49zM900 -52q-157 0 -300 61t-246.5 164.5t-164.5 246.5t-61 301q0 157 61 300.5t164.5 247t246.5 164.5t300 61t300 -61t246.5 -164.5t164.5 -247t61 -300.5q0 -158 -61 -301t-164.5 -246.5
t-246.5 -164.5t-300 -61z" />
    <glyph glyph-name="uni24C6" unicode="Q&#x25cb;" 
d="M1207 320h-150l-49 69q-54 -16 -108 -16q-143 0 -237 95.5t-94 262.5t94 263t237 96t237 -96t94 -263q0 -181 -117 -282zM900 504q22 0 42 6l-73 106h120l36 -45q50 60 50 160q0 108 -49.5 168t-125.5 60t-125.5 -60t-49.5 -168t49.5 -167.5t125.5 -59.5zM900 99
q128 0 243.5 49t197.5 132.5t130 198t48 241.5t-48 241.5t-130 198t-197.5 132.5t-243.5 49t-243.5 -49t-197.5 -132.5t-130 -198t-48 -241.5t48 -241.5t130 -198t197.5 -132.5t243.5 -49zM900 -52q-157 0 -300 61t-246.5 164.5t-164.5 246.5t-61 301q0 157 61 300.5
t164.5 247t246.5 164.5t300 61t300 -61t246.5 -164.5t164.5 -247t61 -300.5q0 -158 -61 -301t-164.5 -246.5t-246.5 -164.5t-300 -61z" />
    <glyph glyph-name="uni24C7" unicode="R&#x25cb;" 
d="M935 1078q121 0 189.5 -59t68.5 -161q0 -70 -37.5 -121t-96.5 -72l147 -280h-168l-124 253h-124v-253h-148v693h293zM790 750h122q58 0 91 26t33 75q0 51 -32.5 78.5t-88.5 27.5h-125v-207zM900 99q128 0 243.5 49t197.5 132.5t130 198t48 241.5t-48 241.5t-130 198
t-197.5 132.5t-243.5 49t-243.5 -49t-197.5 -132.5t-130 -198t-48 -241.5t48 -241.5t130 -198t197.5 -132.5t243.5 -49zM900 -52q-157 0 -300 61t-246.5 164.5t-164.5 246.5t-61 301q0 157 61 300.5t164.5 247t246.5 164.5t300 61t300 -61t246.5 -164.5t164.5 -247
t61 -300.5q0 -158 -61 -301t-164.5 -246.5t-246.5 -164.5t-300 -61z" />
    <glyph glyph-name="uni24C8" unicode="S&#x25cb;" 
d="M613 583h150q5 -41 43.5 -65.5t98.5 -24.5t96 23.5t36 63.5q0 32 -26 51t-87 32l-107 21q-91 19 -139 68t-48 125q0 97 75.5 155.5t198.5 58.5q118 0 193 -56.5t79 -149.5h-146q-4 40 -38.5 63.5t-88.5 23.5t-87 -23t-33 -61q0 -57 99 -76l110 -22q100 -20 147.5 -68
t47.5 -128q0 -102 -78 -161.5t-212 -59.5q-128 0 -204.5 56.5t-79.5 153.5zM900 99q128 0 243.5 49t197.5 132.5t130 198t48 241.5t-48 241.5t-130 198t-197.5 132.5t-243.5 49t-243.5 -49t-197.5 -132.5t-130 -198t-48 -241.5t48 -241.5t130 -198t197.5 -132.5t243.5 -49z
M900 -52q-157 0 -300 61t-246.5 164.5t-164.5 246.5t-61 301q0 157 61 300.5t164.5 247t246.5 164.5t300 61t300 -61t246.5 -164.5t164.5 -247t61 -300.5q0 -158 -61 -301t-164.5 -246.5t-246.5 -164.5t-300 -61z" />
    <glyph glyph-name="uni24C9" unicode="T&#x25cb;" 
d="M979 364h-158v561h-205v132h568v-132h-205v-561zM900 99q128 0 243.5 49t197.5 132.5t130 198t48 241.5t-48 241.5t-130 198t-197.5 132.5t-243.5 49t-243.5 -49t-197.5 -132.5t-130 -198t-48 -241.5t48 -241.5t130 -198t197.5 -132.5t243.5 -49zM900 -52q-157 0 -300 61
t-246.5 164.5t-164.5 246.5t-61 301q0 157 61 300.5t164.5 247t246.5 164.5t300 61t300 -61t246.5 -164.5t164.5 -247t61 -300.5q0 -158 -61 -301t-164.5 -246.5t-246.5 -164.5t-300 -61z" />
    <glyph glyph-name="uni24CA" unicode="U&#x25cb;" 
d="M900 484q65 0 103 35t38 98v440h154v-454q0 -112 -81 -181.5t-214 -69.5t-214 69.5t-81 181.5v454h154v-440q0 -63 38 -98t103 -35zM900 99q128 0 243.5 49t197.5 132.5t130 198t48 241.5t-48 241.5t-130 198t-197.5 132.5t-243.5 49t-243.5 -49t-197.5 -132.5t-130 -198
t-48 -241.5t48 -241.5t130 -198t197.5 -132.5t243.5 -49zM900 -52q-157 0 -300 61t-246.5 164.5t-164.5 246.5t-61 301q0 157 61 300.5t164.5 247t246.5 164.5t300 61t300 -61t246.5 -164.5t164.5 -247t61 -300.5q0 -158 -61 -301t-164.5 -246.5t-246.5 -164.5t-300 -61z
" />
    <glyph glyph-name="uni24CB" unicode="V&#x25cb;" 
d="M802 362l-236 693h176l154 -530h8l154 530h176l-236 -693h-196zM900 99q128 0 243.5 49t197.5 132.5t130 198t48 241.5t-48 241.5t-130 198t-197.5 132.5t-243.5 49t-243.5 -49t-197.5 -132.5t-130 -198t-48 -241.5t48 -241.5t130 -198t197.5 -132.5t243.5 -49zM900 -52
q-157 0 -300 61t-246.5 164.5t-164.5 246.5t-61 301q0 157 61 300.5t164.5 247t246.5 164.5t300 61t300 -61t246.5 -164.5t164.5 -247t61 -300.5q0 -158 -61 -301t-164.5 -246.5t-246.5 -164.5t-300 -61z" />
    <glyph glyph-name="uni24CC" unicode="W&#x25cb;" 
d="M898 831l-128 -467h-136l-184 693h156l104 -494h7l122 494h122l122 -494h7l104 494h156l-183 -693h-137l-128 467h-4zM900 99q128 0 243.5 49t197.5 132.5t130 198t48 241.5t-48 241.5t-130 198t-197.5 132.5t-243.5 49t-243.5 -49t-197.5 -132.5t-130 -198t-48 -241.5
t48 -241.5t130 -198t197.5 -132.5t243.5 -49zM900 -52q-157 0 -300 61t-246.5 164.5t-164.5 246.5t-61 301q0 157 61 300.5t164.5 247t246.5 164.5t300 61t300 -61t246.5 -164.5t164.5 -247t61 -300.5q0 -158 -61 -301t-164.5 -246.5t-246.5 -164.5t-300 -61z" />
    <glyph glyph-name="uni24CD" unicode="X&#x25cb;" 
d="M1221 1078l-227 -347l225 -346h-174l-146 240h-7l-148 -240h-169l225 349l-223 344h179l144 -241h7l144 241h170zM900 99q128 0 243.5 49t197.5 132.5t130 198t48 241.5t-48 241.5t-130 198t-197.5 132.5t-243.5 49t-243.5 -49t-197.5 -132.5t-130 -198t-48 -241.5
t48 -241.5t130 -198t197.5 -132.5t243.5 -49zM900 -52q-157 0 -300 61t-246.5 164.5t-164.5 246.5t-61 301q0 157 61 300.5t164.5 247t246.5 164.5t300 61t300 -61t246.5 -164.5t164.5 -247t61 -300.5q0 -158 -61 -301t-164.5 -246.5t-246.5 -164.5t-300 -61z" />
    <glyph glyph-name="uni24CE" unicode="Y&#x25cb;" 
d="M980 376h-159v251l-241 441h172l146 -287h6l147 287h169l-240 -439v-253zM900 99q128 0 243.5 49t197.5 132.5t130 198t48 241.5t-48 241.5t-130 198t-197.5 132.5t-243.5 49t-243.5 -49t-197.5 -132.5t-130 -198t-48 -241.5t48 -241.5t130 -198t197.5 -132.5t243.5 -49z
M900 -52q-157 0 -300 61t-246.5 164.5t-164.5 246.5t-61 301q0 157 61 300.5t164.5 247t246.5 164.5t300 61t300 -61t246.5 -164.5t164.5 -247t61 -300.5q0 -158 -61 -301t-164.5 -246.5t-246.5 -164.5t-300 -61z" />
    <glyph glyph-name="uni24CF" unicode="Z&#x25cb;" 
d="M632 385v104l338 452v8h-331v129h521v-104l-338 -451v-9h348v-129h-538zM900 99q128 0 243.5 49t197.5 132.5t130 198t48 241.5t-48 241.5t-130 198t-197.5 132.5t-243.5 49t-243.5 -49t-197.5 -132.5t-130 -198t-48 -241.5t48 -241.5t130 -198t197.5 -132.5t243.5 -49z
M900 -52q-157 0 -300 61t-246.5 164.5t-164.5 246.5t-61 301q0 157 61 300.5t164.5 247t246.5 164.5t300 61t300 -61t246.5 -164.5t164.5 -247t61 -300.5q0 -158 -61 -301t-164.5 -246.5t-246.5 -164.5t-300 -61z" />
    <glyph glyph-name="uni24EA" unicode="&#x30;&#x25cb;" 
d="M900 505q60 0 94.5 58t34.5 168q0 111 -34.5 169t-94.5 58t-94.5 -58t-34.5 -169q0 -110 34.5 -168t94.5 -58zM899 373q-124 0 -200 95.5t-76 262.5t76 262.5t200 95.5q125 0 201.5 -95.5t76.5 -262.5t-76.5 -262.5t-201.5 -95.5zM900 99q128 0 243.5 49t197.5 132.5
t130 198t48 241.5t-48 241.5t-130 198t-197.5 132.5t-243.5 49t-243.5 -49t-197.5 -132.5t-130 -198t-48 -241.5t48 -241.5t130 -198t197.5 -132.5t243.5 -49zM900 -52q-157 0 -300 61t-246.5 164.5t-164.5 246.5t-61 301q0 157 61 300.5t164.5 247t246.5 164.5t300 61
t300 -61t246.5 -164.5t164.5 -247t61 -300.5q0 -158 -61 -301t-164.5 -246.5t-246.5 -164.5t-300 -61z" />
    <glyph glyph-name="uni1F130" unicode="A&#x25a1;" 
d="M808 673h184l-86 266h-12zM725 393h-156l240 692h182l240 -692h-156l-53 163h-244zM415 1467h970q108 0 183.5 -74.5t75.5 -180.5v-980q0 -106 -75.5 -180.5t-183.5 -74.5h-970q-107 0 -183 74.5t-76 180.5v980q0 106 76 180.5t183 74.5zM1497 1193q0 55 -41 94.5
t-99 39.5h-914q-57 0 -98.5 -39.5t-41.5 -94.5v-942q0 -55 41.5 -94.5t98.5 -39.5h914q57 0 98.5 39.5t41.5 94.5v942z" />
    <glyph glyph-name="uni1F131" unicode="B&#x25a1;" 
d="M651 385v693h312q98 0 155.5 -46t57.5 -125q0 -59 -34.5 -98.5t-91.5 -52.5v-6q73 -9 117.5 -53.5t44.5 -117.5q0 -89 -68.5 -141.5t-179.5 -52.5h-313zM801 967v-174h91q135 0 135 89q0 39 -27.5 62t-75.5 23h-123zM801 693v-193h102q81 0 117.5 23t36.5 71
q0 46 -33 72.5t-92 26.5h-131zM415 1467h970q108 0 183.5 -74.5t75.5 -180.5v-980q0 -106 -75.5 -180.5t-183.5 -74.5h-970q-107 0 -183 74.5t-76 180.5v980q0 106 76 180.5t183 74.5zM1497 1193q0 55 -41 94.5t-99 39.5h-914q-57 0 -98.5 -39.5t-41.5 -94.5v-942
q0 -55 41.5 -94.5t98.5 -39.5h914q57 0 98.5 39.5t41.5 94.5v942z" />
    <glyph glyph-name="uni1F132" unicode="C&#x25a1;" 
d="M1054 619h152q-14 -111 -97.5 -178.5t-209.5 -67.5q-147 0 -238 98t-91 260t91 260.5t238 98.5q129 0 212.5 -69.5t95.5 -183.5h-149q-7 53 -51 87.5t-106 34.5q-80 0 -128 -62t-48 -166t48 -165.5t128 -61.5q60 0 103 32.5t50 82.5zM415 1467h970q108 0 183.5 -74.5
t75.5 -180.5v-980q0 -106 -75.5 -180.5t-183.5 -74.5h-970q-107 0 -183 74.5t-76 180.5v980q0 106 76 180.5t183 74.5zM1497 1193q0 55 -41 94.5t-99 39.5h-914q-57 0 -98.5 -39.5t-41.5 -94.5v-942q0 -55 41.5 -94.5t98.5 -39.5h914q57 0 98.5 39.5t41.5 94.5v942z" />
    <glyph glyph-name="uni1F133" unicode="D&#x25a1;" 
d="M628 1078h271q160 0 241.5 -88.5t81.5 -256.5t-81.5 -258t-241.5 -90h-271v693zM780 952v-440h97q96 0 141.5 54t45.5 165q0 112 -46 166.5t-141 54.5h-97zM415 1467h970q108 0 183.5 -74.5t75.5 -180.5v-980q0 -106 -75.5 -180.5t-183.5 -74.5h-970q-107 0 -183 74.5
t-76 180.5v980q0 106 76 180.5t183 74.5zM1497 1193q0 55 -41 94.5t-99 39.5h-914q-57 0 -98.5 -39.5t-41.5 -94.5v-942q0 -55 41.5 -94.5t98.5 -39.5h914q57 0 98.5 39.5t41.5 94.5v942z" />
    <glyph glyph-name="uni1F134" unicode="E&#x25a1;" 
d="M1143 511v-126h-472v693h472v-125h-321v-161h302v-114h-302v-167h321zM415 1467h970q108 0 183.5 -74.5t75.5 -180.5v-980q0 -106 -75.5 -180.5t-183.5 -74.5h-970q-107 0 -183 74.5t-76 180.5v980q0 106 76 180.5t183 74.5zM1497 1193q0 55 -41 94.5t-99 39.5h-914
q-57 0 -98.5 -39.5t-41.5 -94.5v-942q0 -55 41.5 -94.5t98.5 -39.5h914q57 0 98.5 39.5t41.5 94.5v942z" />
    <glyph glyph-name="uni1F135" unicode="F&#x25a1;" 
d="M852 385h-155v693h468v-127h-313v-173h286v-126h-286v-267zM415 1467h970q108 0 183.5 -74.5t75.5 -180.5v-980q0 -106 -75.5 -180.5t-183.5 -74.5h-970q-107 0 -183 74.5t-76 180.5v980q0 106 76 180.5t183 74.5zM1497 1193q0 55 -41 94.5t-99 39.5h-914
q-57 0 -98.5 -39.5t-41.5 -94.5v-942q0 -55 41.5 -94.5t98.5 -39.5h914q57 0 98.5 39.5t41.5 94.5v942z" />
    <glyph glyph-name="uni1F136" unicode="G&#x25a1;" 
d="M1057 608v44h-148v108h293v-121q0 -119 -79.5 -192.5t-222.5 -73.5q-148 0 -239 99t-91 259q0 161 91 260t239 99q124 0 208.5 -65t97.5 -172h-151q-7 49 -50 80t-102 31q-81 0 -129.5 -63.5t-48.5 -169.5t48.5 -170t129.5 -64q73 0 113.5 30.5t40.5 80.5zM415 1467h970
q108 0 183.5 -74.5t75.5 -180.5v-980q0 -106 -75.5 -180.5t-183.5 -74.5h-970q-107 0 -183 74.5t-76 180.5v980q0 106 76 180.5t183 74.5zM1497 1193q0 55 -41 94.5t-99 39.5h-914q-57 0 -98.5 -39.5t-41.5 -94.5v-942q0 -55 41.5 -94.5t98.5 -39.5h914q57 0 98.5 39.5
t41.5 94.5v942z" />
    <glyph glyph-name="uni1F137" unicode="H&#x25a1;" 
d="M1198 385h-151v287h-293v-287h-151v693h151v-276h293v276h151v-693zM415 1467h970q108 0 183.5 -74.5t75.5 -180.5v-980q0 -106 -75.5 -180.5t-183.5 -74.5h-970q-107 0 -183 74.5t-76 180.5v980q0 106 76 180.5t183 74.5zM1497 1193q0 55 -41 94.5t-99 39.5h-914
q-57 0 -98.5 -39.5t-41.5 -94.5v-942q0 -55 41.5 -94.5t98.5 -39.5h914q57 0 98.5 39.5t41.5 94.5v942z" />
    <glyph glyph-name="uni1F138" unicode="I&#x25a1;" 
d="M981 385h-162v693h162v-693zM415 1467h970q108 0 183.5 -74.5t75.5 -180.5v-980q0 -106 -75.5 -180.5t-183.5 -74.5h-970q-107 0 -183 74.5t-76 180.5v980q0 106 76 180.5t183 74.5zM1497 1193q0 55 -41 94.5t-99 39.5h-914q-57 0 -98.5 -39.5t-41.5 -94.5v-942
q0 -55 41.5 -94.5t98.5 -39.5h914q57 0 98.5 39.5t41.5 94.5v942z" />
    <glyph glyph-name="uni1F139" unicode="J&#x25a1;" 
d="M624 596h150q1 -40 25.5 -63.5t65.5 -23.5q95 0 95 104v460h155v-459q0 -117 -66 -181.5t-182 -64.5q-114 0 -178.5 63.5t-64.5 164.5zM415 1467h970q108 0 183.5 -74.5t75.5 -180.5v-980q0 -106 -75.5 -180.5t-183.5 -74.5h-970q-107 0 -183 74.5t-76 180.5v980
q0 106 76 180.5t183 74.5zM1497 1193q0 55 -41 94.5t-99 39.5h-914q-57 0 -98.5 -39.5t-41.5 -94.5v-942q0 -55 41.5 -94.5t98.5 -39.5h914q57 0 98.5 39.5t41.5 94.5v942z" />
    <glyph glyph-name="uni1F13A" unicode="K&#x25a1;" 
d="M1222 1078l-251 -305l260 -388h-182l-193 287l-73 -80v-207h-148v693h148v-298h8l261 298h170zM415 1467h970q108 0 183.5 -74.5t75.5 -180.5v-980q0 -106 -75.5 -180.5t-183.5 -74.5h-970q-107 0 -183 74.5t-76 180.5v980q0 106 76 180.5t183 74.5zM1497 1193
q0 55 -41 94.5t-99 39.5h-914q-57 0 -98.5 -39.5t-41.5 -94.5v-942q0 -55 41.5 -94.5t98.5 -39.5h914q57 0 98.5 39.5t41.5 94.5v942z" />
    <glyph glyph-name="uni1F13B" unicode="L&#x25a1;" 
d="M1181 525v-135h-461v693h157v-558h304zM415 1467h970q108 0 183.5 -74.5t75.5 -180.5v-980q0 -106 -75.5 -180.5t-183.5 -74.5h-970q-107 0 -183 74.5t-76 180.5v980q0 106 76 180.5t183 74.5zM1497 1193q0 55 -41 94.5t-99 39.5h-914q-57 0 -98.5 -39.5t-41.5 -94.5
v-942q0 -55 41.5 -94.5t98.5 -39.5h914q57 0 98.5 39.5t41.5 94.5v942z" />
    <glyph glyph-name="uni1F13C" unicode="M&#x25a1;" 
d="M679 385h-130v693h153l197 -496h4l197 496h151v-693h-129v450h-10l-165 -421h-93l-166 421h-9v-450zM415 1467h970q108 0 183.5 -74.5t75.5 -180.5v-980q0 -106 -75.5 -180.5t-183.5 -74.5h-970q-107 0 -183 74.5t-76 180.5v980q0 106 76 180.5t183 74.5zM1497 1193
q0 55 -41 94.5t-99 39.5h-914q-57 0 -98.5 -39.5t-41.5 -94.5v-942q0 -55 41.5 -94.5t98.5 -39.5h914q57 0 98.5 39.5t41.5 94.5v942z" />
    <glyph glyph-name="uni1F13D" unicode="N&#x25a1;" 
d="M749 385h-141v693h123l311 -437h9v437h141v-693h-123l-312 441h-8v-441zM415 1467h970q108 0 183.5 -74.5t75.5 -180.5v-980q0 -106 -75.5 -180.5t-183.5 -74.5h-970q-107 0 -183 74.5t-76 180.5v980q0 106 76 180.5t183 74.5zM1497 1193q0 55 -41 94.5t-99 39.5h-914
q-57 0 -98.5 -39.5t-41.5 -94.5v-942q0 -55 41.5 -94.5t98.5 -39.5h914q57 0 98.5 39.5t41.5 94.5v942z" />
    <glyph glyph-name="uni1F13E" unicode="O&#x25a1;" 
d="M900 504q76 0 125.5 59.5t49.5 167.5t-49.5 168t-125.5 60t-125.5 -60t-49.5 -168t49.5 -167.5t125.5 -59.5zM900 373q-143 0 -237 95.5t-94 262.5t94 263t237 96t237 -96t94 -263t-94 -262.5t-237 -95.5zM415 1467h970q108 0 183.5 -74.5t75.5 -180.5v-980
q0 -106 -75.5 -180.5t-183.5 -74.5h-970q-107 0 -183 74.5t-76 180.5v980q0 106 76 180.5t183 74.5zM1497 1193q0 55 -41 94.5t-99 39.5h-914q-57 0 -98.5 -39.5t-41.5 -94.5v-942q0 -55 41.5 -94.5t98.5 -39.5h914q57 0 98.5 39.5t41.5 94.5v942z" />
    <glyph glyph-name="uni1F13F" unicode="P&#x25a1;" 
d="M966 1078q114 0 180.5 -66t66.5 -172t-67 -171t-182 -65h-138v-219h-155v693h295zM1058 840q0 55 -31 84.5t-88 29.5h-117v-228h117q57 0 88 29.5t31 84.5zM415 1467h970q108 0 183.5 -74.5t75.5 -180.5v-980q0 -106 -75.5 -180.5t-183.5 -74.5h-970q-107 0 -183 74.5
t-76 180.5v980q0 106 76 180.5t183 74.5zM1497 1193q0 55 -41 94.5t-99 39.5h-914q-57 0 -98.5 -39.5t-41.5 -94.5v-942q0 -55 41.5 -94.5t98.5 -39.5h914q57 0 98.5 39.5t41.5 94.5v942z" />
    <glyph glyph-name="uni1F140" unicode="Q&#x25a1;" 
d="M1207 320h-150l-49 69q-54 -16 -108 -16q-143 0 -237 95.5t-94 262.5t94 263t237 96t237 -96t94 -263q0 -181 -117 -282zM900 504q22 0 42 6l-73 106h120l36 -45q50 60 50 160q0 108 -49.5 168t-125.5 60t-125.5 -60t-49.5 -168t49.5 -167.5t125.5 -59.5zM415 1467h970
q108 0 183.5 -74.5t75.5 -180.5v-980q0 -106 -75.5 -180.5t-183.5 -74.5h-970q-107 0 -183 74.5t-76 180.5v980q0 106 76 180.5t183 74.5zM1497 1193q0 55 -41 94.5t-99 39.5h-914q-57 0 -98.5 -39.5t-41.5 -94.5v-942q0 -55 41.5 -94.5t98.5 -39.5h914q57 0 98.5 39.5
t41.5 94.5v942z" />
    <glyph glyph-name="uni1F141" unicode="R&#x25a1;" 
d="M935 1078q121 0 189.5 -59t68.5 -161q0 -70 -37.5 -121t-96.5 -72l147 -280h-168l-124 253h-124v-253h-148v693h293zM790 750h122q58 0 91 26t33 75q0 51 -32.5 78.5t-88.5 27.5h-125v-207zM415 1467h970q108 0 183.5 -74.5t75.5 -180.5v-980q0 -106 -75.5 -180.5
t-183.5 -74.5h-970q-107 0 -183 74.5t-76 180.5v980q0 106 76 180.5t183 74.5zM1497 1193q0 55 -41 94.5t-99 39.5h-914q-57 0 -98.5 -39.5t-41.5 -94.5v-942q0 -55 41.5 -94.5t98.5 -39.5h914q57 0 98.5 39.5t41.5 94.5v942z" />
    <glyph glyph-name="uni1F142" unicode="S&#x25a1;" 
d="M613 583h150q5 -41 43.5 -65.5t98.5 -24.5t96 23.5t36 63.5q0 32 -26 51t-87 32l-107 21q-91 19 -139 68t-48 125q0 97 75.5 155.5t198.5 58.5q118 0 193 -56.5t79 -149.5h-146q-4 40 -38.5 63.5t-88.5 23.5t-87 -23t-33 -61q0 -57 99 -76l110 -22q100 -20 147.5 -68
t47.5 -128q0 -102 -78 -161.5t-212 -59.5q-128 0 -204.5 56.5t-79.5 153.5zM415 1467h970q108 0 183.5 -74.5t75.5 -180.5v-980q0 -106 -75.5 -180.5t-183.5 -74.5h-970q-107 0 -183 74.5t-76 180.5v980q0 106 76 180.5t183 74.5zM1497 1193q0 55 -41 94.5t-99 39.5h-914
q-57 0 -98.5 -39.5t-41.5 -94.5v-942q0 -55 41.5 -94.5t98.5 -39.5h914q57 0 98.5 39.5t41.5 94.5v942z" />
    <glyph glyph-name="uni1F143" unicode="T&#x25a1;" 
d="M979 379h-158v561h-205v132h568v-132h-205v-561zM415 1467h970q108 0 183.5 -74.5t75.5 -180.5v-980q0 -106 -75.5 -180.5t-183.5 -74.5h-970q-107 0 -183 74.5t-76 180.5v980q0 106 76 180.5t183 74.5zM1497 1193q0 55 -41 94.5t-99 39.5h-914q-57 0 -98.5 -39.5
t-41.5 -94.5v-942q0 -55 41.5 -94.5t98.5 -39.5h914q57 0 98.5 39.5t41.5 94.5v942z" />
    <glyph glyph-name="uni1F144" unicode="U&#x25a1;" 
d="M900 499q64 0 102.5 35.5t38.5 97.5v440h154v-454q0 -112 -81 -181.5t-214 -69.5t-214 69.5t-81 181.5v454h154v-440q0 -62 38.5 -97.5t102.5 -35.5zM415 1467h970q108 0 183.5 -74.5t75.5 -180.5v-980q0 -106 -75.5 -180.5t-183.5 -74.5h-970q-107 0 -183 74.5
t-76 180.5v980q0 106 76 180.5t183 74.5zM1497 1193q0 55 -41 94.5t-99 39.5h-914q-57 0 -98.5 -39.5t-41.5 -94.5v-942q0 -55 41.5 -94.5t98.5 -39.5h914q57 0 98.5 39.5t41.5 94.5v942z" />
    <glyph glyph-name="uni1F145" unicode="V&#x25a1;" 
d="M802 377l-236 693h176l154 -530h8l154 530h176l-236 -693h-196zM415 1467h970q108 0 183.5 -74.5t75.5 -180.5v-980q0 -106 -75.5 -180.5t-183.5 -74.5h-970q-107 0 -183 74.5t-76 180.5v980q0 106 76 180.5t183 74.5zM1497 1193q0 55 -41 94.5t-99 39.5h-914
q-57 0 -98.5 -39.5t-41.5 -94.5v-942q0 -55 41.5 -94.5t98.5 -39.5h914q57 0 98.5 39.5t41.5 94.5v942z" />
    <glyph glyph-name="uni1F146" unicode="W&#x25a1;" 
d="M898 847l-128 -468h-136l-184 693h156l104 -493h7l122 493h122l122 -493h7l104 493h156l-183 -693h-137l-128 468h-4zM415 1467h970q108 0 183.5 -74.5t75.5 -180.5v-980q0 -106 -75.5 -180.5t-183.5 -74.5h-970q-107 0 -183 74.5t-76 180.5v980q0 106 76 180.5t183 74.5
zM1497 1193q0 55 -41 94.5t-99 39.5h-914q-57 0 -98.5 -39.5t-41.5 -94.5v-942q0 -55 41.5 -94.5t98.5 -39.5h914q57 0 98.5 39.5t41.5 94.5v942z" />
    <glyph glyph-name="uni1F147" unicode="X&#x25a1;" 
d="M1221 1078l-227 -347l225 -346h-174l-146 240h-7l-148 -240h-169l225 349l-223 344h179l144 -241h7l144 241h170zM415 1467h970q108 0 183.5 -74.5t75.5 -180.5v-980q0 -106 -75.5 -180.5t-183.5 -74.5h-970q-107 0 -183 74.5t-76 180.5v980q0 106 76 180.5t183 74.5z
M1497 1193q0 55 -41 94.5t-99 39.5h-914q-57 0 -98.5 -39.5t-41.5 -94.5v-942q0 -55 41.5 -94.5t98.5 -39.5h914q57 0 98.5 39.5t41.5 94.5v942z" />
    <glyph glyph-name="uni1F148" unicode="Y&#x25a1;" 
d="M980 379h-159v252l-241 441h172l146 -287h6l147 287h169l-240 -439v-254zM415 1467h970q108 0 183.5 -74.5t75.5 -180.5v-980q0 -106 -75.5 -180.5t-183.5 -74.5h-970q-107 0 -183 74.5t-76 180.5v980q0 106 76 180.5t183 74.5zM1497 1193q0 55 -41 94.5t-99 39.5h-914
q-57 0 -98.5 -39.5t-41.5 -94.5v-942q0 -55 41.5 -94.5t98.5 -39.5h914q57 0 98.5 39.5t41.5 94.5v942z" />
    <glyph glyph-name="uni1F149" unicode="Z&#x25a1;" 
d="M632 385v104l338 452v8h-331v129h521v-104l-338 -451v-9h348v-129h-538zM415 1467h970q108 0 183.5 -74.5t75.5 -180.5v-980q0 -106 -75.5 -180.5t-183.5 -74.5h-970q-107 0 -183 74.5t-76 180.5v980q0 106 76 180.5t183 74.5zM1497 1193q0 55 -41 94.5t-99 39.5h-914
q-57 0 -98.5 -39.5t-41.5 -94.5v-942q0 -55 41.5 -94.5t98.5 -39.5h914q57 0 98.5 39.5t41.5 94.5v942z" />
    <glyph glyph-name="plus.uc.whitecircle" unicode="&#x2b;&#x25cb;" 
d="M966 664v-214h-132v214h-209v132h209v208h132v-208h209v-132h-209zM900 99q128 0 243.5 49t197.5 132.5t130 198t48 241.5t-48 241.5t-130 198t-197.5 132.5t-243.5 49t-243.5 -49t-197.5 -132.5t-130 -198t-48 -241.5t48 -241.5t130 -198t197.5 -132.5t243.5 -49z
M900 -52q-157 0 -300 61t-246.5 164.5t-164.5 246.5t-61 301q0 157 61 300.5t164.5 247t246.5 164.5t300 61t300 -61t246.5 -164.5t164.5 -247t61 -300.5q0 -158 -61 -301t-164.5 -246.5t-246.5 -164.5t-300 -61z" />
    <glyph glyph-name="minus.uc.whitecircle" unicode="&#x2212;&#x25cb;" 
d="M1159 659h-518v136h518v-136zM900 99q128 0 243.5 49t197.5 132.5t130 198t48 241.5t-48 241.5t-130 198t-197.5 132.5t-243.5 49t-243.5 -49t-197.5 -132.5t-130 -198t-48 -241.5t48 -241.5t130 -198t197.5 -132.5t243.5 -49zM900 -52q-157 0 -300 61t-246.5 164.5
t-164.5 246.5t-61 301q0 157 61 300.5t164.5 247t246.5 164.5t300 61t300 -61t246.5 -164.5t164.5 -247t61 -300.5q0 -158 -61 -301t-164.5 -246.5t-246.5 -164.5t-300 -61z" />
    <glyph glyph-name="multiply.uc.whitecircle" unicode="&#xd7;&#x25cb;" 
d="M900 823l161 156l94 -96l-161 -156l161 -156l-94 -95l-161 156l-162 -156l-93 95l162 156l-162 156l93 96zM900 99q128 0 243.5 49t197.5 132.5t130 198t48 241.5t-48 241.5t-130 198t-197.5 132.5t-243.5 49t-243.5 -49t-197.5 -132.5t-130 -198t-48 -241.5t48 -241.5
t130 -198t197.5 -132.5t243.5 -49zM900 -52q-157 0 -300 61t-246.5 164.5t-164.5 246.5t-61 301q0 157 61 300.5t164.5 247t246.5 164.5t300 61t300 -61t246.5 -164.5t164.5 -247t61 -300.5q0 -158 -61 -301t-164.5 -246.5t-246.5 -164.5t-300 -61z" />
    <glyph glyph-name="divide.uc.whitecircle" unicode="&#xf7;&#x25cb;" 
d="M1159 671h-518v112h518v-112zM814 941q0 36 24.5 58.5t60.5 22.5q38 0 63 -22.5t25 -58.5q0 -34 -25 -57t-63 -23q-36 0 -60.5 23t-24.5 57zM814 516q0 36 24.5 59t61.5 23q38 0 62.5 -23t24.5 -59q0 -34 -24.5 -56.5t-62.5 -22.5q-37 0 -61.5 22.5t-24.5 56.5zM900 99
q128 0 243.5 49t197.5 132.5t130 198t48 241.5t-48 241.5t-130 198t-197.5 132.5t-243.5 49t-243.5 -49t-197.5 -132.5t-130 -198t-48 -241.5t48 -241.5t130 -198t197.5 -132.5t243.5 -49zM900 -52q-157 0 -300 61t-246.5 164.5t-164.5 246.5t-61 301q0 157 61 300.5
t164.5 247t246.5 164.5t300 61t300 -61t246.5 -164.5t164.5 -247t61 -300.5q0 -158 -61 -301t-164.5 -246.5t-246.5 -164.5t-300 -61z" />
    <glyph glyph-name="equal.uc.whitecircle" unicode="&#x3d;&#x25cb;" 
d="M1152 544h-504v121h504v-121zM1152 788h-504v122h504v-122zM900 99q128 0 243.5 49t197.5 132.5t130 198t48 241.5t-48 241.5t-130 198t-197.5 132.5t-243.5 49t-243.5 -49t-197.5 -132.5t-130 -198t-48 -241.5t48 -241.5t130 -198t197.5 -132.5t243.5 -49zM900 -52
q-157 0 -300 61t-246.5 164.5t-164.5 246.5t-61 301q0 157 61 300.5t164.5 247t246.5 164.5t300 61t300 -61t246.5 -164.5t164.5 -247t61 -300.5q0 -158 -61 -301t-164.5 -246.5t-246.5 -164.5t-300 -61z" />
    <glyph glyph-name="greater.uc.whitecircle" unicode="&#x3e;&#x25cb;" 
d="M1174 770v-96l-497 -249v151l318 146v6l-318 148v154zM900 99q128 0 243.5 49t197.5 132.5t130 198t48 241.5t-48 241.5t-130 198t-197.5 132.5t-243.5 49t-243.5 -49t-197.5 -132.5t-130 -198t-48 -241.5t48 -241.5t130 -198t197.5 -132.5t243.5 -49zM900 -52
q-157 0 -300 61t-246.5 164.5t-164.5 246.5t-61 301q0 157 61 300.5t164.5 247t246.5 164.5t300 61t300 -61t246.5 -164.5t164.5 -247t61 -300.5q0 -158 -61 -301t-164.5 -246.5t-246.5 -164.5t-300 -61z" />
    <glyph glyph-name="less.uc.whitecircle" unicode="&#x3c;&#x25cb;" 
d="M627 674v96l496 260v-154l-319 -148v-6l319 -146v-151zM900 99q128 0 243.5 49t197.5 132.5t130 198t48 241.5t-48 241.5t-130 198t-197.5 132.5t-243.5 49t-243.5 -49t-197.5 -132.5t-130 -198t-48 -241.5t48 -241.5t130 -198t197.5 -132.5t243.5 -49zM900 -52
q-157 0 -300 61t-246.5 164.5t-164.5 246.5t-61 301q0 157 61 300.5t164.5 247t246.5 164.5t300 61t300 -61t246.5 -164.5t164.5 -247t61 -300.5q0 -158 -61 -301t-164.5 -246.5t-246.5 -164.5t-300 -61z" />
    <glyph glyph-name="numbersign.whitecircle" unicode="&#x23;&#x25cb;" 
d="M1190 791h-108l-26 -119h104l-22 -109h-104l-38 -181h-113l39 181h-118l-38 -181h-112l38 181h-102l21 109h102l27 119h-100l21 109h101l36 174h112l-36 -174h116l37 174h112l-36 -174h107zM846 798l-31 -140h135l30 140h-134zM900 99q128 0 243.5 49t197.5 132.5
t130 198t48 241.5t-48 241.5t-130 198t-197.5 132.5t-243.5 49t-243.5 -49t-197.5 -132.5t-130 -198t-48 -241.5t48 -241.5t130 -198t197.5 -132.5t243.5 -49zM900 -52q-157 0 -300 61t-246.5 164.5t-164.5 246.5t-61 301q0 157 61 300.5t164.5 247t246.5 164.5t300 61
t300 -61t246.5 -164.5t164.5 -247t61 -300.5q0 -158 -61 -301t-164.5 -246.5t-246.5 -164.5t-300 -61z" />
    <glyph glyph-name="uni25BC.whitecircle" unicode="&#x25bc;&#x25cb;" 
d="M1219 946l-319 -555l-318 555h637zM900 99q128 0 243.5 49t197.5 132.5t130 198t48 241.5t-48 241.5t-130 198t-197.5 132.5t-243.5 49t-243.5 -49t-197.5 -132.5t-130 -198t-48 -241.5t48 -241.5t130 -198t197.5 -132.5t243.5 -49zM900 -52q-157 0 -300 61t-246.5 164.5
t-164.5 246.5t-61 301q0 157 61 300.5t164.5 247t246.5 164.5t300 61t300 -61t246.5 -164.5t164.5 -247t61 -300.5q0 -158 -61 -301t-164.5 -246.5t-246.5 -164.5t-300 -61z" />
    <glyph glyph-name="uni25B2.whitecircle" unicode="&#x25b2;&#x25cb;" 
d="M1219 509h-637l318 555zM900 99q128 0 243.5 49t197.5 132.5t130 198t48 241.5t-48 241.5t-130 198t-197.5 132.5t-243.5 49t-243.5 -49t-197.5 -132.5t-130 -198t-48 -241.5t48 -241.5t130 -198t197.5 -132.5t243.5 -49zM900 -52q-157 0 -300 61t-246.5 164.5
t-164.5 246.5t-61 301q0 157 61 300.5t164.5 247t246.5 164.5t300 61t300 -61t246.5 -164.5t164.5 -247t61 -300.5q0 -158 -61 -301t-164.5 -246.5t-246.5 -164.5t-300 -61z" />
    <glyph glyph-name="uni25C0.whitecircle" unicode="&#x25c0;&#x25cb;" 
d="M1117 408l-552 321l552 319v-640zM900 99q128 0 243.5 49t197.5 132.5t130 198t48 241.5t-48 241.5t-130 198t-197.5 132.5t-243.5 49t-243.5 -49t-197.5 -132.5t-130 -198t-48 -241.5t48 -241.5t130 -198t197.5 -132.5t243.5 -49zM900 -52q-157 0 -300 61t-246.5 164.5
t-164.5 246.5t-61 301q0 157 61 300.5t164.5 247t246.5 164.5t300 61t300 -61t246.5 -164.5t164.5 -247t61 -300.5q0 -158 -61 -301t-164.5 -246.5t-246.5 -164.5t-300 -61z" />
    <glyph glyph-name="uni25B6.whitecircle" unicode="&#x25b6;&#x25cb;" 
d="M683 408v640l552 -319zM900 99q128 0 243.5 49t197.5 132.5t130 198t48 241.5t-48 241.5t-130 198t-197.5 132.5t-243.5 49t-243.5 -49t-197.5 -132.5t-130 -198t-48 -241.5t48 -241.5t130 -198t197.5 -132.5t243.5 -49zM900 -52q-157 0 -300 61t-246.5 164.5
t-164.5 246.5t-61 301q0 157 61 300.5t164.5 247t246.5 164.5t300 61t300 -61t246.5 -164.5t164.5 -247t61 -300.5q0 -158 -61 -301t-164.5 -246.5t-246.5 -164.5t-300 -61z" />
    <glyph glyph-name="question.whitecircle" unicode="&#x3f;&#x25cb;" 
d="M790 457q0 38 27 60.5t71 22.5q45 0 72 -22.5t27 -60.5q0 -36 -27 -59t-72 -23q-43 0 -70.5 23t-27.5 59zM815 606q0 1 -0.5 15.5t-0.5 16.5q-4 91 93 156q46 32 64 51.5t18 49.5q0 37 -26.5 56.5t-65.5 19.5q-45 0 -70.5 -25.5t-25.5 -64.5h-139q-2 105 68 157t176 52
q102 0 169 -50t67 -139q0 -57 -26.5 -93t-76.5 -70q-56 -39 -72.5 -58t-16.5 -54v-20h-135zM900 99q128 0 243.5 49t197.5 132.5t130 198t48 241.5t-48 241.5t-130 198t-197.5 132.5t-243.5 49t-243.5 -49t-197.5 -132.5t-130 -198t-48 -241.5t48 -241.5t130 -198
t197.5 -132.5t243.5 -49zM900 -52q-157 0 -300 61t-246.5 164.5t-164.5 246.5t-61 301q0 157 61 300.5t164.5 247t246.5 164.5t300 61t300 -61t246.5 -164.5t164.5 -247t61 -300.5q0 -158 -61 -301t-164.5 -246.5t-246.5 -164.5t-300 -61z" />
    <glyph glyph-name="exclam.whitecircle" unicode="&#x21;&#x25cb;" 
d="M803 457q0 38 27 61t71 23q45 0 71.5 -23t26.5 -61q0 -36 -26.5 -59t-71.5 -23q-44 0 -71 23t-27 59zM818 1078h167l-18 -455h-131zM900 99q128 0 243.5 49t197.5 132.5t130 198t48 241.5t-48 241.5t-130 198t-197.5 132.5t-243.5 49t-243.5 -49t-197.5 -132.5t-130 -198
t-48 -241.5t48 -241.5t130 -198t197.5 -132.5t243.5 -49zM900 -52q-157 0 -300 61t-246.5 164.5t-164.5 246.5t-61 301q0 157 61 300.5t164.5 247t246.5 164.5t300 61t300 -61t246.5 -164.5t164.5 -247t61 -300.5q0 -158 -61 -301t-164.5 -246.5t-246.5 -164.5t-300 -61z
" />
    <glyph glyph-name="uni2717.whitecircle" unicode="&#x2717;&#x25cb;" 
d="M904 824l247 242l95 -99l-246 -243l246 -243l-95 -101l-247 242l-247 -242l-96 100l246 244l-247 243l95 100zM900 99q128 0 243.5 49t197.5 132.5t130 198t48 241.5t-48 241.5t-130 198t-197.5 132.5t-243.5 49t-243.5 -49t-197.5 -132.5t-130 -198t-48 -241.5
t48 -241.5t130 -198t197.5 -132.5t243.5 -49zM900 -52q-157 0 -300 61t-246.5 164.5t-164.5 246.5t-61 301q0 157 61 300.5t164.5 247t246.5 164.5t300 61t300 -61t246.5 -164.5t164.5 -247t61 -300.5q0 -158 -61 -301t-164.5 -246.5t-246.5 -164.5t-300 -61z" />
    <glyph glyph-name="uni2713.whitecircle" unicode="&#x2713;&#x25cb;" 
d="M1325 931l-545 -539l-296 295l101 104l195 -193l445 440zM900 99q128 0 243.5 49t197.5 132.5t130 198t48 241.5t-48 241.5t-130 198t-197.5 132.5t-243.5 49t-243.5 -49t-197.5 -132.5t-130 -198t-48 -241.5t48 -241.5t130 -198t197.5 -132.5t243.5 -49zM900 -52
q-157 0 -300 61t-246.5 164.5t-164.5 246.5t-61 301q0 157 61 300.5t164.5 247t246.5 164.5t300 61t300 -61t246.5 -164.5t164.5 -247t61 -300.5q0 -158 -61 -301t-164.5 -246.5t-246.5 -164.5t-300 -61z" />
    <glyph glyph-name="zero.whitesquare" unicode="&#x30;&#x25a1;" 
d="M900 505q60 0 94.5 58t34.5 168q0 111 -34.5 169t-94.5 58t-94.5 -58t-34.5 -169q0 -110 34.5 -168t94.5 -58zM899 373q-124 0 -200 95.5t-76 262.5t76 262.5t200 95.5q125 0 201.5 -95.5t76.5 -262.5t-76.5 -262.5t-201.5 -95.5zM415 1467h970q108 0 183.5 -74.5
t75.5 -180.5v-980q0 -106 -75.5 -180.5t-183.5 -74.5h-970q-107 0 -183 74.5t-76 180.5v980q0 106 76 180.5t183 74.5zM1497 1193q0 55 -41 94.5t-99 39.5h-914q-57 0 -98.5 -39.5t-41.5 -94.5v-942q0 -55 41.5 -94.5t98.5 -39.5h914q57 0 98.5 39.5t41.5 94.5v942z" />
    <glyph glyph-name="one.whitesquare" unicode="&#x31;&#x25a1;" 
d="M1020 385h-155v545h-8l-163 -111v143l171 116h155v-693zM415 1467h970q108 0 183.5 -74.5t75.5 -180.5v-980q0 -106 -75.5 -180.5t-183.5 -74.5h-970q-107 0 -183 74.5t-76 180.5v980q0 106 76 180.5t183 74.5zM1497 1193q0 55 -41 94.5t-99 39.5h-914q-57 0 -98.5 -39.5
t-41.5 -94.5v-942q0 -55 41.5 -94.5t98.5 -39.5h914q57 0 98.5 39.5t41.5 94.5v942z" />
    <glyph glyph-name="two.whitesquare" unicode="&#x32;&#x25a1;" 
d="M794 864h-146v4q0 94 66.5 158t186.5 64q112 0 180.5 -56t68.5 -143q0 -41 -19.5 -80.5t-42 -66t-66.5 -70.5l-154 -154v-7h295v-128h-508v99l262 260q27 28 40.5 43.5t26.5 41t13 49.5q0 38 -28.5 62t-71.5 24q-48 0 -75.5 -27.5t-27.5 -68.5v-4zM415 1467h970
q108 0 183.5 -74.5t75.5 -180.5v-980q0 -106 -75.5 -180.5t-183.5 -74.5h-970q-107 0 -183 74.5t-76 180.5v980q0 106 76 180.5t183 74.5zM1497 1193q0 55 -41 94.5t-99 39.5h-914q-57 0 -98.5 -39.5t-41.5 -94.5v-942q0 -55 41.5 -94.5t98.5 -39.5h914q57 0 98.5 39.5
t41.5 94.5v942z" />
    <glyph glyph-name="three.whitesquare" unicode="&#x33;&#x25a1;" 
d="M822 680v120h74q46 0 76 25t30 63q-1 37 -30.5 60t-75.5 23q-47 0 -77 -24t-32 -59h-144q3 91 70 146t186 56q114 0 183 -50.5t71 -131.5q1 -62 -42 -104.5t-92 -50.5v-8q59 -6 106.5 -49t48.5 -116q1 -95 -77.5 -151t-200.5 -56q-120 0 -191.5 57t-73.5 146h142
q4 -36 38 -59t85 -23q56 0 90.5 26t34.5 68q-1 41 -34 66.5t-88 25.5h-77zM415 1467h970q108 0 183.5 -74.5t75.5 -180.5v-980q0 -106 -75.5 -180.5t-183.5 -74.5h-970q-107 0 -183 74.5t-76 180.5v980q0 106 76 180.5t183 74.5zM1497 1193q0 55 -41 94.5t-99 39.5h-914
q-57 0 -98.5 -39.5t-41.5 -94.5v-942q0 -55 41.5 -94.5t98.5 -39.5h914q57 0 98.5 39.5t41.5 94.5v942z" />
    <glyph glyph-name="four.whitesquare" unicode="&#x34;&#x25a1;" 
d="M873 1078h218v-445h93v-124h-93v-124h-139v124h-349v126q29 52 65.5 113.5t63.5 104.5t72.5 116t68.5 109zM742 633h210v329h-9q-151 -237 -201 -326v-3zM415 1467h970q108 0 183.5 -74.5t75.5 -180.5v-980q0 -106 -75.5 -180.5t-183.5 -74.5h-970q-107 0 -183 74.5
t-76 180.5v980q0 106 76 180.5t183 74.5zM1497 1193q0 55 -41 94.5t-99 39.5h-914q-57 0 -98.5 -39.5t-41.5 -94.5v-942q0 -55 41.5 -94.5t98.5 -39.5h914q57 0 98.5 39.5t41.5 94.5v942z" />
    <glyph glyph-name="five.whitesquare" unicode="&#x35;&#x25a1;" 
d="M644 575h144q8 -37 42 -57t79 -20q50 0 86.5 33t36.5 88q0 50 -36 81.5t-88 31.5q-41 0 -70 -17.5t-42 -41.5h-137l30 408h451v-122h-329l-16 -174h8q14 24 53.5 43t94.5 19q99 0 165 -60.5t66 -163.5q0 -112 -76 -180t-201 -68q-113 0 -185 56.5t-76 143.5zM415 1467
h970q108 0 183.5 -74.5t75.5 -180.5v-980q0 -106 -75.5 -180.5t-183.5 -74.5h-970q-107 0 -183 74.5t-76 180.5v980q0 106 76 180.5t183 74.5zM1497 1193q0 55 -41 94.5t-99 39.5h-914q-57 0 -98.5 -39.5t-41.5 -94.5v-942q0 -55 41.5 -94.5t98.5 -39.5h914q57 0 98.5 39.5
t41.5 94.5v942z" />
    <glyph glyph-name="six.whitesquare" unicode="&#x36;&#x25a1;" 
d="M1170 623q0 -112 -74.5 -181t-194.5 -69q-121 0 -197 70.5t-76 184.5q0 123 97 259q9 15 65.5 89t78.5 102h179q-169 -208 -188 -237q-10 -15 -25 -38l9 -2q42 39 115 39q91 0 151 -61.5t60 -155.5zM780 615q0 -49 34 -82t86 -33t86 33t34 82q0 50 -34 83t-86 33t-86 -33
t-34 -83zM415 1467h970q108 0 183.5 -74.5t75.5 -180.5v-980q0 -106 -75.5 -180.5t-183.5 -74.5h-970q-107 0 -183 74.5t-76 180.5v980q0 106 76 180.5t183 74.5zM1497 1193q0 55 -41 94.5t-99 39.5h-914q-57 0 -98.5 -39.5t-41.5 -94.5v-942q0 -55 41.5 -94.5t98.5 -39.5
h914q57 0 98.5 39.5t41.5 94.5v942z" />
    <glyph glyph-name="seven.whitesquare" unicode="&#x37;&#x25a1;" 
d="M652 1078h509v-130l-288 -563h-164l295 558v7h-352v128zM415 1467h970q108 0 183.5 -74.5t75.5 -180.5v-980q0 -106 -75.5 -180.5t-183.5 -74.5h-970q-107 0 -183 74.5t-76 180.5v980q0 106 76 180.5t183 74.5zM1497 1193q0 55 -41 94.5t-99 39.5h-914q-57 0 -98.5 -39.5
t-41.5 -94.5v-942q0 -55 41.5 -94.5t98.5 -39.5h914q57 0 98.5 39.5t41.5 94.5v942z" />
    <glyph glyph-name="eight.whitesquare" unicode="&#x38;&#x25a1;" 
d="M900 484q56 0 92.5 29.5t36.5 75.5t-36 75.5t-93 29.5t-93.5 -30t-36.5 -75q0 -46 36.5 -75.5t93.5 -29.5zM900 797q47 0 77.5 26t30.5 66q0 39 -30.5 64.5t-77.5 25.5t-77.5 -25.5t-30.5 -64.5q0 -40 30.5 -66t77.5 -26zM898 373q-129 0 -206.5 56t-77.5 149
q0 64 42 110.5t111 59.5v6q-59 18 -91.5 57.5t-32.5 94.5q0 82 71.5 133t185.5 51t185.5 -51t71.5 -133q0 -55 -32.5 -95t-91.5 -57v-6q69 -13 111 -59.5t42 -110.5q0 -93 -79.5 -149t-208.5 -56zM415 1467h970q108 0 183.5 -74.5t75.5 -180.5v-980q0 -106 -75.5 -180.5
t-183.5 -74.5h-970q-107 0 -183 74.5t-76 180.5v980q0 106 76 180.5t183 74.5zM1497 1193q0 55 -41 94.5t-99 39.5h-914q-57 0 -98.5 -39.5t-41.5 -94.5v-942q0 -55 41.5 -94.5t98.5 -39.5h914q57 0 98.5 39.5t41.5 94.5v942z" />
    <glyph glyph-name="nine.whitesquare" unicode="&#x39;&#x25a1;" 
d="M629 841q0 111 74.5 180t194.5 69q121 0 196.5 -70.5t75.5 -184.5q0 -123 -98 -262q-8 -14 -65.5 -89.5t-76.5 -97.5h-179q152 183 187 234q18 25 26 41l-9 1q-44 -39 -116 -39q-91 0 -150.5 62t-59.5 156zM1019 848q0 50 -34 82.5t-86 32.5t-86.5 -32.5t-34.5 -82.5
t34.5 -82.5t86.5 -32.5t86 32.5t34 82.5zM415 1467h970q108 0 183.5 -74.5t75.5 -180.5v-980q0 -106 -75.5 -180.5t-183.5 -74.5h-970q-107 0 -183 74.5t-76 180.5v980q0 106 76 180.5t183 74.5zM1497 1193q0 55 -41 94.5t-99 39.5h-914q-57 0 -98.5 -39.5t-41.5 -94.5v-942
q0 -55 41.5 -94.5t98.5 -39.5h914q57 0 98.5 39.5t41.5 94.5v942z" />
    <glyph glyph-name="plus.uc.whitesquare" unicode="&#x2b;&#x25a1;" 
d="M966 664v-214h-132v214h-209v132h209v208h132v-208h209v-132h-209zM415 1467h970q108 0 183.5 -74.5t75.5 -180.5v-980q0 -106 -75.5 -180.5t-183.5 -74.5h-970q-107 0 -183 74.5t-76 180.5v980q0 106 76 180.5t183 74.5zM1497 1193q0 55 -41 94.5t-99 39.5h-914
q-57 0 -98.5 -39.5t-41.5 -94.5v-942q0 -55 41.5 -94.5t98.5 -39.5h914q57 0 98.5 39.5t41.5 94.5v942z" />
    <glyph glyph-name="minus.uc.whitesquare" unicode="&#x2212;&#x25a1;" 
d="M1159 659h-518v136h518v-136zM415 1467h970q108 0 183.5 -74.5t75.5 -180.5v-980q0 -106 -75.5 -180.5t-183.5 -74.5h-970q-107 0 -183 74.5t-76 180.5v980q0 106 76 180.5t183 74.5zM1497 1193q0 55 -41 94.5t-99 39.5h-914q-57 0 -98.5 -39.5t-41.5 -94.5v-942
q0 -55 41.5 -94.5t98.5 -39.5h914q57 0 98.5 39.5t41.5 94.5v942z" />
    <glyph glyph-name="multiply.uc.whitesquare" unicode="&#xd7;&#x25a1;" 
d="M900 823l162 156l93 -95l-162 -156l162 -156l-93 -96l-162 156l-162 -156l-93 96l161 156l-161 156l93 95zM415 1467h970q108 0 183.5 -74.5t75.5 -180.5v-980q0 -106 -75.5 -180.5t-183.5 -74.5h-970q-107 0 -183 74.5t-76 180.5v980q0 106 76 180.5t183 74.5z
M1497 1193q0 55 -41 94.5t-99 39.5h-914q-57 0 -98.5 -39.5t-41.5 -94.5v-942q0 -55 41.5 -94.5t98.5 -39.5h914q57 0 98.5 39.5t41.5 94.5v942z" />
    <glyph glyph-name="divide.uc.whitesquare" unicode="&#xf7;&#x25a1;" 
d="M1159 671h-518v112h518v-112zM814 941q0 36 24.5 58.5t60.5 22.5q38 0 63 -22.5t25 -58.5q0 -34 -25 -57t-63 -23q-36 0 -60.5 23t-24.5 57zM814 516q0 36 24.5 59t61.5 23q38 0 62.5 -23t24.5 -59q0 -34 -24.5 -56.5t-62.5 -22.5q-37 0 -61.5 22.5t-24.5 56.5zM415 1467
h970q108 0 183.5 -74.5t75.5 -180.5v-980q0 -106 -75.5 -180.5t-183.5 -74.5h-970q-107 0 -183 74.5t-76 180.5v980q0 106 76 180.5t183 74.5zM1497 1193q0 55 -41 94.5t-99 39.5h-914q-57 0 -98.5 -39.5t-41.5 -94.5v-942q0 -55 41.5 -94.5t98.5 -39.5h914q57 0 98.5 39.5
t41.5 94.5v942z" />
    <glyph glyph-name="equal.uc.whitesquare" unicode="&#x3d;&#x25a1;" 
d="M1152 544h-504v121h504v-121zM1152 788h-504v122h504v-122zM415 1467h970q108 0 183.5 -74.5t75.5 -180.5v-980q0 -106 -75.5 -180.5t-183.5 -74.5h-970q-107 0 -183 74.5t-76 180.5v980q0 106 76 180.5t183 74.5zM1497 1193q0 55 -41 94.5t-99 39.5h-914
q-57 0 -98.5 -39.5t-41.5 -94.5v-942q0 -55 41.5 -94.5t98.5 -39.5h914q57 0 98.5 39.5t41.5 94.5v942z" />
    <glyph glyph-name="greater.uc.whitesquare" unicode="&#x3e;&#x25a1;" 
d="M1174 770v-96l-497 -249v151l318 146v6l-318 148v154zM415 1467h970q108 0 183.5 -74.5t75.5 -180.5v-980q0 -106 -75.5 -180.5t-183.5 -74.5h-970q-107 0 -183 74.5t-76 180.5v980q0 106 76 180.5t183 74.5zM1497 1193q0 55 -41 94.5t-99 39.5h-914q-57 0 -98.5 -39.5
t-41.5 -94.5v-942q0 -55 41.5 -94.5t98.5 -39.5h914q57 0 98.5 39.5t41.5 94.5v942z" />
    <glyph glyph-name="less.uc.whitesquare" unicode="&#x3c;&#x25a1;" 
d="M627 674v96l496 260v-154l-319 -148v-6l319 -146v-151zM415 1467h970q108 0 183.5 -74.5t75.5 -180.5v-980q0 -106 -75.5 -180.5t-183.5 -74.5h-970q-107 0 -183 74.5t-76 180.5v980q0 106 76 180.5t183 74.5zM1497 1193q0 55 -41 94.5t-99 39.5h-914q-57 0 -98.5 -39.5
t-41.5 -94.5v-942q0 -55 41.5 -94.5t98.5 -39.5h914q57 0 98.5 39.5t41.5 94.5v942z" />
    <glyph glyph-name="numbersign.whitesquare" unicode="&#x23;&#x25a1;" 
d="M1190 791h-108l-26 -119h104l-22 -109h-104l-38 -181h-113l39 181h-118l-38 -181h-112l38 181h-102l21 109h102l27 119h-100l21 109h101l36 174h112l-36 -174h116l37 174h112l-36 -174h107zM846 798l-31 -140h135l30 140h-134zM415 1467h970q108 0 183.5 -74.5
t75.5 -180.5v-980q0 -106 -75.5 -180.5t-183.5 -74.5h-970q-107 0 -183 74.5t-76 180.5v980q0 106 76 180.5t183 74.5zM1497 1193q0 55 -41 94.5t-99 39.5h-914q-57 0 -98.5 -39.5t-41.5 -94.5v-942q0 -55 41.5 -94.5t98.5 -39.5h914q57 0 98.5 39.5t41.5 94.5v942z" />
    <glyph glyph-name="uni25BC.whitesquare" unicode="&#x25bc;&#x25a1;" 
d="M1220 946l-319 -555l-319 555h638zM415 1467h970q108 0 183.5 -74.5t75.5 -180.5v-980q0 -106 -75.5 -180.5t-183.5 -74.5h-970q-107 0 -183 74.5t-76 180.5v980q0 106 76 180.5t183 74.5zM1497 1193q0 55 -41 94.5t-99 39.5h-914q-57 0 -98.5 -39.5t-41.5 -94.5v-942
q0 -55 41.5 -94.5t98.5 -39.5h914q57 0 98.5 39.5t41.5 94.5v942z" />
    <glyph glyph-name="uni25B2.whitesquare" unicode="&#x25b2;&#x25a1;" 
d="M1219 509h-637l318 555zM415 1467h970q108 0 183.5 -74.5t75.5 -180.5v-980q0 -106 -75.5 -180.5t-183.5 -74.5h-970q-107 0 -183 74.5t-76 180.5v980q0 106 76 180.5t183 74.5zM1497 1193q0 55 -41 94.5t-99 39.5h-914q-57 0 -98.5 -39.5t-41.5 -94.5v-942
q0 -55 41.5 -94.5t98.5 -39.5h914q57 0 98.5 39.5t41.5 94.5v942z" />
    <glyph glyph-name="uni25C0.whitesquare" unicode="&#x25c0;&#x25a1;" 
d="M1117 408l-552 321l552 319v-640zM415 1467h970q108 0 183.5 -74.5t75.5 -180.5v-980q0 -106 -75.5 -180.5t-183.5 -74.5h-970q-107 0 -183 74.5t-76 180.5v980q0 106 76 180.5t183 74.5zM1497 1193q0 55 -41 94.5t-99 39.5h-914q-57 0 -98.5 -39.5t-41.5 -94.5v-942
q0 -55 41.5 -94.5t98.5 -39.5h914q57 0 98.5 39.5t41.5 94.5v942z" />
    <glyph glyph-name="uni25B6.whitesquare" unicode="&#x25b6;&#x25a1;" 
d="M683 408v640l552 -319zM415 1467h970q108 0 183.5 -74.5t75.5 -180.5v-980q0 -106 -75.5 -180.5t-183.5 -74.5h-970q-107 0 -183 74.5t-76 180.5v980q0 106 76 180.5t183 74.5zM1497 1193q0 55 -41 94.5t-99 39.5h-914q-57 0 -98.5 -39.5t-41.5 -94.5v-942
q0 -55 41.5 -94.5t98.5 -39.5h914q57 0 98.5 39.5t41.5 94.5v942z" />
    <glyph glyph-name="question.whitesquare" unicode="&#x3f;&#x25a1;" 
d="M790 457q0 38 27 60.5t71 22.5q45 0 72 -22.5t27 -60.5q0 -36 -27 -59t-72 -23q-43 0 -70.5 23t-27.5 59zM662 881q-2 105 68 157t176 52q102 0 169 -50t67 -139q0 -57 -26.5 -93t-76.5 -70q-56 -39 -72.5 -58t-16.5 -54v-20h-135q0 1 -0.5 15.5t-0.5 16.5q-4 91 93 156
q46 32 64 51.5t18 49.5q0 37 -26.5 56.5t-65.5 19.5q-45 0 -70.5 -25.5t-25.5 -64.5h-139zM415 1467h970q108 0 183.5 -74.5t75.5 -180.5v-980q0 -106 -75.5 -180.5t-183.5 -74.5h-970q-107 0 -183 74.5t-76 180.5v980q0 106 76 180.5t183 74.5zM1497 1193q0 55 -41 94.5
t-99 39.5h-914q-57 0 -98.5 -39.5t-41.5 -94.5v-942q0 -55 41.5 -94.5t98.5 -39.5h914q57 0 98.5 39.5t41.5 94.5v942z" />
    <glyph glyph-name="exclam.whitesquare" unicode="&#x21;&#x25a1;" 
d="M803 457q0 38 27 61t71 23q45 0 71.5 -23t26.5 -61q0 -36 -26.5 -59t-71.5 -23q-44 0 -71 23t-27 59zM818 1078h167l-18 -455h-131zM415 1467h970q108 0 183.5 -74.5t75.5 -180.5v-980q0 -106 -75.5 -180.5t-183.5 -74.5h-970q-107 0 -183 74.5t-76 180.5v980
q0 106 76 180.5t183 74.5zM1497 1193q0 55 -41 94.5t-99 39.5h-914q-57 0 -98.5 -39.5t-41.5 -94.5v-942q0 -55 41.5 -94.5t98.5 -39.5h914q57 0 98.5 39.5t41.5 94.5v942z" />
    <glyph glyph-name="uni2717.whitesquare" unicode="&#x2717;&#x25a1;" 
d="M904 824l247 242l95 -99l-246 -243l246 -243l-95 -101l-247 242l-247 -242l-96 100l246 244l-247 243l95 100zM415 1467h970q108 0 183.5 -74.5t75.5 -180.5v-980q0 -106 -75.5 -180.5t-183.5 -74.5h-970q-107 0 -183 74.5t-76 180.5v980q0 106 76 180.5t183 74.5z
M1497 1193q0 55 -41 94.5t-99 39.5h-914q-57 0 -98.5 -39.5t-41.5 -94.5v-942q0 -55 41.5 -94.5t98.5 -39.5h914q57 0 98.5 39.5t41.5 94.5v942z" />
    <glyph glyph-name="uni2713.whitesquare" unicode="&#x2713;&#x25a1;" 
d="M1325 931l-545 -539l-296 295l101 104l195 -193l445 440zM415 1467h970q108 0 183.5 -74.5t75.5 -180.5v-980q0 -106 -75.5 -180.5t-183.5 -74.5h-970q-107 0 -183 74.5t-76 180.5v980q0 106 76 180.5t183 74.5zM1497 1193q0 55 -41 94.5t-99 39.5h-914
q-57 0 -98.5 -39.5t-41.5 -94.5v-942q0 -55 41.5 -94.5t98.5 -39.5h914q57 0 98.5 39.5t41.5 94.5v942z" />
    <glyph glyph-name=".notdef" horiz-adv-x="2048" 
d="M100 -494v247h1848v-247h-1848zM100 -55v247h1848v-247h-1848zM100 385v247h1848v-247h-1848zM100 824v247h1848v-247h-1848zM100 1264v247h1848v-247h-1848zM100 1703v247h1848v-247h-1848z" />
    <glyph glyph-name=".null" horiz-adv-x="0" 
 />
    <glyph glyph-name="nonmarkingreturn" horiz-adv-x="0" 
 />
    <glyph glyph-name="space" unicode=" " horiz-adv-x="560" 
 />
    <glyph glyph-name="exclam" unicode="!" horiz-adv-x="670" 
d="M213 1444h243l-20 -966h-202zM336 -23q-70 0 -112.5 42t-42.5 110q0 70 42.5 112t112.5 42q69 0 111 -42t42 -112q0 -68 -42 -110t-111 -42z" />
    <glyph glyph-name="quotedbl" unicode="&#x22;" horiz-adv-x="938" 
d="M362 872h-193v571h193v-571zM769 872h-192v571h192v-571z" />
    <glyph glyph-name="numbersign" unicode="#" horiz-adv-x="1319" 
d="M1216 882h-214l-64 -304h213l-33 -178h-214l-82 -400h-172l83 400h-281l-82 -400h-171l82 400h-213l35 178h213l63 304h-212l34 177h212l79 384h171l-78 -384h280l79 384h172l-80 -384h214zM545 891l-66 -324h292l67 324h-293z" />
    <glyph glyph-name="dollar" unicode="$" horiz-adv-x="1359" 
d="M751 -136h-137v130q-215 14 -340.5 124t-126.5 284h212q8 -89 75.5 -147.5t179.5 -71.5v456l-89 23q-168 43 -256.5 141.5t-88.5 244.5q0 173 115.5 281.5t318.5 127.5v138h137v-138q194 -17 312 -127t123 -277h-209q-3 83 -65 141.5t-161 70.5v-431l93 -21
q188 -46 278.5 -143t90.5 -252q0 -183 -121 -293.5t-341 -129.5v-131zM1000 395q0 86 -60.5 139t-188.5 79v-432q119 7 184 63t65 151zM394 1066q0 -77 56 -129t164 -74v403q-96 -5 -158 -61.5t-62 -138.5z" />
    <glyph glyph-name="percent" unicode="%" horiz-adv-x="1643" 
d="M711 1116q0 -158 -88.5 -257t-229.5 -99q-140 0 -229 99.5t-89 256.5q0 158 88.5 257t229.5 99t229.5 -99t88.5 -257zM393 916q62 0 99 55t37 146q0 93 -36.5 146t-99.5 53q-62 0 -99 -54t-37 -145t37 -146t99 -55zM420 0h-219l549 754l480 689h218l-558 -764zM1568 328
q0 -158 -88.5 -257.5t-229.5 -99.5t-230 99.5t-89 257.5q0 157 89 256t230 99t229.5 -99t88.5 -256zM1250 127q61 0 98 54.5t37 146.5q0 93 -36.5 146t-98.5 53t-99 -54t-37 -145t37 -146t99 -55z" />
    <glyph glyph-name="ampersand" unicode="&#x26;" horiz-adv-x="1481" 
d="M1192 0l-125 132q-89 -75 -209.5 -117t-251.5 -42q-221 0 -357.5 113t-136.5 296q0 126 68.5 222t211.5 172q4 2 28 15.5t31 16.5q-99 103 -140 179t-41 155q0 142 109.5 236t274.5 94q166 0 273.5 -92t107.5 -236q0 -112 -72.5 -201t-233.5 -174l331 -344q62 116 62 333
v46h195v-54q0 -302 -120 -475l257 -275h-262zM516 654q-190 -99 -190 -255q0 -110 83 -177.5t218 -67.5q92 0 178 32t139 86l-381 404q-24 -10 -47 -22zM618 888q120 60 170.5 115.5t50.5 127.5q0 77 -51 125t-133 48q-80 0 -132 -49t-52 -125q0 -55 33 -109t114 -133z" />
    <glyph glyph-name="quotesingle" unicode="'" horiz-adv-x="531" 
d="M362 872h-193v571h193v-571z" />
    <glyph glyph-name="parenleft" unicode="(" horiz-adv-x="755" 
d="M638 -277h-196q-129 161 -199.5 390.5t-70.5 486.5q0 256 66 454.5t214 387.5h189q-109 -127 -178.5 -363t-69.5 -479q0 -234 58.5 -443.5t186.5 -433.5z" />
    <glyph glyph-name="parenright" unicode=")" horiz-adv-x="755" 
d="M116 -277q128 224 186.5 433.5t58.5 443.5q0 244 -69.5 480t-178.5 362h191q148 -189 213.5 -387t65.5 -455q0 -256 -70.5 -485t-199.5 -392h-197z" />
    <glyph glyph-name="asterisk" unicode="*" horiz-adv-x="1032" 
d="M806 808l-234 159l21 -279h-154l21 280l-234 -160l-76 138l258 117l-258 121l76 140l235 -168l-22 287h154l-22 -287l235 168l76 -140l-257 -121l257 -117z" />
    <glyph glyph-name="plus" unicode="+" horiz-adv-x="1359" 
d="M773 484v-424h-187v424h-426v196h426v423h187v-423h427v-196h-427z" />
    <glyph glyph-name="comma" unicode="," horiz-adv-x="645" 
d="M321 -376h-180l89 598h233z" />
    <glyph glyph-name="hyphen" unicode="&#x2011;" horiz-adv-x="975" 
d="M816 476h-656v211h656v-211z" />
    <glyph glyph-name="hyphen" unicode="-" horiz-adv-x="975" 
d="M816 476h-656v211h656v-211z" />
    <glyph glyph-name="period" unicode="." horiz-adv-x="645" 
d="M323 -17q-63 0 -105 43t-42 106t42 106t105 43t105 -43t42 -106t-42 -106t-105 -43z" />
    <glyph glyph-name="slash" unicode="/" horiz-adv-x="733" 
d="M246 -309h-192l430 1752h196z" />
    <glyph glyph-name="zero" unicode="0" horiz-adv-x="1330" 
d="M666 -35q-253 0 -393.5 199t-140.5 559q0 357 141 556t393 199q250 0 391 -199.5t141 -557.5q0 -359 -140 -557.5t-392 -198.5zM666 161q148 0 227 144.5t79 417.5q0 270 -80 414.5t-226 144.5t-227 -145t-81 -414q0 -272 80 -417t228 -145z" />
    <glyph glyph-name="one" unicode="1" horiz-adv-x="989" 
d="M502 0v1202h-17l-362 -256v229l380 268h223v-1443h-224z" />
    <glyph glyph-name="two" unicode="2" horiz-adv-x="1266" 
d="M144 1026q0 199 136 325.5t349 126.5q206 0 341 -117t135 -295q0 -115 -67.5 -227.5t-248.5 -295.5l-321 -325v-17h660v-201h-972v162l488 508q144 150 192 226.5t48 156.5q0 99 -75 165t-187 66q-119 0 -192.5 -71t-73.5 -187v-3h-212v3z" />
    <glyph glyph-name="three" unicode="3" horiz-adv-x="1315" 
d="M471 648v185h175q116 0 189 64t73 166q0 101 -71 161.5t-189 60.5t-190.5 -61t-81.5 -168h-213q11 196 143 309t349 113q201 0 337.5 -109.5t136.5 -272.5q0 -127 -69.5 -217t-188.5 -117v-17q147 -17 232 -111.5t85 -239.5q0 -121 -69 -219t-190.5 -154t-269.5 -56
q-227 0 -370.5 117t-153.5 310h215q11 -105 94.5 -167t214.5 -62q132 0 216 68t84 175q0 112 -82 177t-224 65h-182z" />
    <glyph glyph-name="four" unicode="4" horiz-adv-x="1351" 
d="M820 0v279h-704v208q168 307 601 956h319v-964h199v-200h-199v-279h-216zM331 488v-14h492v772h-13q-254 -368 -479 -758z" />
    <glyph glyph-name="five" unicode="5" horiz-adv-x="1300" 
d="M656 -35q-215 0 -354 120t-149 310h213q13 -105 93 -169t199 -64q135 0 218 82t83 217t-83 219.5t-215 84.5q-92 0 -165 -39t-115 -109h-205l76 826h842v-200h-667l-38 -423h17q102 131 305 131q206 0 336.5 -135.5t130.5 -348.5q0 -224 -144.5 -363t-377.5 -139z" />
    <glyph glyph-name="six" unicode="6" horiz-adv-x="1339" 
d="M689 -35q-160 0 -281.5 77t-192.5 222q-88 173 -88 439q0 367 150.5 571t421.5 204q191 0 325 -105.5t167 -282.5h-225q-27 88 -99 139t-170 51q-166 0 -258.5 -143.5t-96.5 -404.5h17q52 104 151.5 161t227.5 57q206 0 340 -136t134 -345q0 -221 -147 -362.5
t-376 -141.5zM687 162q129 0 216 86t87 214q0 131 -84.5 215t-217.5 84q-132 0 -218 -83.5t-86 -211.5q0 -129 87 -216.5t216 -87.5z" />
    <glyph glyph-name="seven" unicode="7" horiz-adv-x="1193" 
d="M217 0l636 1228v16h-756v199h983v-203l-628 -1240h-235z" />
    <glyph glyph-name="eight" unicode="8" horiz-adv-x="1349" 
d="M674 -35q-241 0 -391.5 117t-150.5 304q0 138 83.5 239t222.5 129v17q-113 29 -180.5 115.5t-67.5 202.5q0 171 136 280t348 109t348 -109t136 -280q0 -117 -67 -203t-181 -115v-17q139 -26 223 -126.5t84 -240.5q0 -187 -151 -304.5t-392 -117.5zM674 151
q139 0 226 70.5t87 183.5t-87 184t-226 71t-226 -71t-87 -184t87 -183.5t226 -70.5zM674 843q118 0 191 62t73 162q0 101 -73 164t-191 63t-190.5 -63t-72.5 -164q0 -100 72.5 -162t190.5 -62z" />
    <glyph glyph-name="nine" unicode="9" horiz-adv-x="1339" 
d="M641 -35q-192 0 -326 106t-167 283h226q26 -88 98 -139t171 -51q166 0 258.5 143.5t95.5 404.5h-8h-5h-4q-52 -104 -151 -161.5t-227 -57.5q-206 0 -340.5 136t-134.5 345q0 221 146.5 362.5t376.5 141.5q160 0 282 -76.5t192 -221.5q89 -175 89 -439
q0 -367 -150.5 -571.5t-421.5 -204.5zM651 683q132 0 218 83t86 211q0 130 -87 217t-215 87q-129 0 -216 -86t-87 -213q0 -131 84 -215t217 -84z" />
    <glyph glyph-name="colon" unicode=":" horiz-adv-x="645" 
d="M323 -17q-63 0 -105 43t-42 106t42 106t105 43t105 -43t42 -106t-42 -106t-105 -43zM323 738q-63 0 -105 43t-42 106q0 64 42 106.5t105 42.5q64 0 105.5 -42.5t41.5 -106.5q0 -63 -42 -106t-105 -43z" />
    <glyph glyph-name="semicolon" unicode=";" horiz-adv-x="645" 
d="M323 738q-63 0 -105 43t-42 106q0 64 42 106.5t105 42.5q64 0 105.5 -42.5t41.5 -106.5q0 -63 -42 -106t-105 -43zM300 -376h-180l90 598h233z" />
    <glyph glyph-name="less" unicode="&#x3c;" horiz-adv-x="1359" 
d="M1133 953l-690 -350v-17l690 -350v-236l-906 503v183l906 503v-236z" />
    <glyph glyph-name="equal" unicode="=" horiz-adv-x="1359" 
d="M1195 270h-1031v197h1031v-197zM1195 698h-1031v197h1031v-197z" />
    <glyph glyph-name="greater" unicode="&#x3e;" horiz-adv-x="1359" 
d="M227 953v236l906 -503v-183l-906 -503v236l689 350v17z" />
    <glyph glyph-name="question" unicode="?" horiz-adv-x="1083" 
d="M79 1053q7 179 125 290.5t329 111.5q197 0 319.5 -105t122.5 -269q0 -216 -210 -342q-96 -57 -131 -105.5t-35 -124.5v-60h-207l-1 76q-4 106 42 179.5t151 136.5q92 55 128 105.5t36 125.5q0 83 -62 136.5t-164 53.5q-103 0 -166 -56.5t-70 -152.5h-207zM508 -23
q-69 0 -112 42t-43 110q0 69 43 111.5t112 42.5t111.5 -42t42.5 -112q0 -68 -42.5 -110t-111.5 -42z" />
    <glyph glyph-name="at" unicode="@" horiz-adv-x="1887" 
d="M936 858q-93 0 -145 -67.5t-52 -188.5t52 -189.5t143 -68.5q95 0 151 69.5t56 188.5q0 118 -55.5 187t-149.5 69zM970 1442q235 0 418 -93t284.5 -262t101.5 -385q0 -241 -103 -383t-279 -142q-90 0 -152.5 44.5t-74.5 117.5h-17q-31 -76 -94.5 -116t-151.5 -40
q-156 0 -251.5 116.5t-95.5 306.5q0 182 95.5 297t248.5 115q79 0 141.5 -38t91.5 -104h17v121h170v-562q0 -53 27.5 -82.5t78.5 -29.5q88 0 140.5 101.5t52.5 271.5q0 271 -182 437.5t-477 166.5q-192 0 -344 -88.5t-237 -248t-85 -361.5q0 -313 190.5 -499t510.5 -186
q94 0 180.5 11.5t131.5 30.5v-142q-135 -44 -319 -44q-388 0 -619 227t-231 607q0 183 61 338.5t170 265t264 170.5t338 61z" />
    <glyph glyph-name="A" unicode="A" horiz-adv-x="1423" 
d="M1115 0l-132 383h-550l-133 -383h-230l521 1443h241l521 -1443h-238zM700 1181l-210 -610h436l-209 610h-17z" />
    <glyph glyph-name="B" unicode="B" horiz-adv-x="1373" 
d="M774 0h-593v1443h580q203 0 318.5 -96.5t115.5 -263.5q0 -113 -73 -202.5t-180 -107.5v-17q146 -15 235.5 -110.5t89.5 -236.5q0 -191 -131 -300t-362 -109zM405 1253v-421h266q148 0 224.5 53.5t76.5 156.5q0 100 -69.5 155.5t-193.5 55.5h-304zM405 190h324
q151 0 230 60t79 175q0 113 -82 171.5t-240 58.5h-311v-465z" />
    <glyph glyph-name="C" unicode="C" horiz-adv-x="1485" 
d="M773 -35q-301 0 -476 203t-175 553q0 351 174.5 554t475.5 203q238 0 405.5 -139.5t194.5 -360.5h-223q-32 133 -133.5 212t-243.5 79q-194 0 -307.5 -147.5t-113.5 -400.5q0 -252 113.5 -399.5t308.5 -147.5q143 0 244.5 72t131.5 194h223q-30 -214 -194 -344.5
t-405 -130.5z" />
    <glyph glyph-name="D" unicode="D" horiz-adv-x="1502" 
d="M181 1443h521q321 0 500 -188.5t179 -528.5q0 -346 -178 -536t-501 -190h-521v1443zM405 1239v-1035h272q227 0 351.5 135.5t124.5 383.5q0 244 -125.5 380t-350.5 136h-272z" />
    <glyph glyph-name="E" unicode="E" horiz-adv-x="1239" 
d="M1097 204v-204h-916v1443h916v-204h-692v-408h655v-194h-655v-433h692z" />
    <glyph glyph-name="F" unicode="F" horiz-adv-x="1191" 
d="M405 0h-224v1443h901v-204h-677v-443h620v-198h-620v-598z" />
    <glyph glyph-name="G" unicode="G" horiz-adv-x="1539" 
d="M1412 571q0 -277 -169.5 -441.5t-453.5 -164.5q-307 0 -487 204t-180 553q0 345 181 550.5t484 205.5q246 0 412 -129.5t203 -348.5h-225q-42 131 -142 200t-248 69q-200 0 -318 -147.5t-118 -397.5q0 -255 118.5 -402.5t322.5 -147.5q177 0 288 99t112 259v31h-372v188
h592v-180z" />
    <glyph glyph-name="H" unicode="H" horiz-adv-x="1550" 
d="M1369 0h-223v633h-741v-633h-224v1443h224v-606h741v606h223v-1443z" />
    <glyph glyph-name="I" unicode="I" horiz-adv-x="585" 
d="M405 0h-224v1443h224v-1443z" />
    <glyph glyph-name="J" unicode="J" horiz-adv-x="1148" 
d="M82 375h220q2 -89 62 -144t156 -55q108 0 166 63.5t58 183.5v1020h224v-1021q0 -217 -118.5 -337t-327.5 -120q-197 0 -318.5 112.5t-121.5 297.5z" />
    <glyph glyph-name="K" unicode="K" horiz-adv-x="1386" 
d="M405 0h-224v1443h224v-676h16l597 676h265l-558 -627l606 -816h-280l-484 655l-162 -181v-474z" />
    <glyph glyph-name="L" unicode="L" horiz-adv-x="1183" 
d="M1081 206v-206h-900v1443h224v-1237h676z" />
    <glyph glyph-name="M" unicode="M" horiz-adv-x="1822" 
d="M1641 0h-208v1042h-14l-423 -1000h-170l-423 1000h-14v-1042h-208v1443h262l459 -1096h17l460 1096h262v-1443z" />
    <glyph glyph-name="N" unicode="N" horiz-adv-x="1539" 
d="M399 0h-218v1443h202l741 -1025h16v1025h218v-1443h-202l-741 1025h-16v-1025z" />
    <glyph glyph-name="O" unicode="O" horiz-adv-x="1590" 
d="M796 1478q312 0 492 -203.5t180 -552.5t-180 -553t-492 -204q-313 0 -493.5 203.5t-180.5 553.5q0 349 181.5 552.5t492.5 203.5zM796 1269q-204 0 -324.5 -148t-120.5 -399t119 -399.5t326 -148.5q205 0 324 148.5t119 399.5q0 252 -119 399.5t-324 147.5z" />
    <glyph glyph-name="P" unicode="P" horiz-adv-x="1329" 
d="M181 1443h565q212 0 344 -133.5t132 -347.5q0 -211 -135 -343.5t-348 -132.5h-334v-486h-224v1443zM405 1245v-562h282q145 0 225.5 72.5t80.5 206.5q0 137 -79 210t-227 73h-282z" />
    <glyph glyph-name="Q" unicode="Q" horiz-adv-x="1590" 
d="M796 -35q-312 0 -493 202.5t-181 553.5q0 350 181.5 553.5t492.5 203.5q310 0 491 -203.5t181 -553.5q0 -206 -63.5 -363.5t-181.5 -248.5l181 -262h-234l-118 159q-115 -41 -256 -41zM797 174q70 0 136 18l-181 251h229l108 -134q72 62 111 168t39 244q0 252 -120 400
t-323 148q-204 0 -324 -147.5t-120 -400.5t119.5 -400t325.5 -147z" />
    <glyph glyph-name="R" unicode="R" horiz-adv-x="1368" 
d="M405 1246v-505h322q130 0 201.5 66t71.5 187q0 118 -74.5 185t-204.5 67h-316zM405 550v-550h-224v1443h571q218 0 348 -120.5t130 -323.5q0 -146 -74.5 -256.5t-205.5 -155.5l324 -587h-259l-294 550h-316z" />
    <glyph glyph-name="S" unicode="S" horiz-adv-x="1333" 
d="M113 388h222q14 -103 107.5 -163.5t238.5 -60.5q135 0 223.5 62.5t88.5 158.5q0 82 -65.5 134.5t-209.5 86.5l-186 45q-196 46 -288 143t-92 256q0 193 144.5 310.5t380.5 117.5q220 0 365 -116t155 -298h-218q-16 100 -97.5 158t-207.5 58q-133 0 -214 -59t-81 -156
q0 -77 61.5 -125t202.5 -81l159 -39q222 -52 320 -147.5t98 -258.5q0 -207 -150 -328t-406 -121q-240 0 -389.5 115t-161.5 308z" />
    <glyph glyph-name="T" unicode="T" horiz-adv-x="1317" 
d="M771 0h-224v1239h-454v204h1131v-204h-453v-1239z" />
    <glyph glyph-name="U" unicode="U" horiz-adv-x="1538" 
d="M409 1443v-926q0 -154 95.5 -248t264.5 -94q170 0 265.5 94t95.5 248v926h224v-946q0 -238 -158.5 -385t-426.5 -147t-426 147t-158 385v946h224z" />
    <glyph glyph-name="V" unicode="V" horiz-adv-x="1415" 
d="M832 0h-246l-516 1443h244l389 -1163h17l387 1163h238z" />
    <glyph glyph-name="W" unicode="W" horiz-adv-x="2013" 
d="M999 1059l-309 -1059h-212l-389 1443h233l265 -1105h14l301 1105h208l303 -1105h14l264 1105h233l-390 -1443h-211l-310 1059h-14z" />
    <glyph glyph-name="X" unicode="X" horiz-adv-x="1427" 
d="M89 0l482 726l-477 717h267l351 -544h17l357 544h252l-490 -723l481 -720h-262l-354 534h-17l-359 -534h-248z" />
    <glyph glyph-name="Y" unicode="Y" horiz-adv-x="1383" 
d="M803 0h-224v582l-508 861h249l363 -625h17l363 625h249l-509 -861v-582z" />
    <glyph glyph-name="Z" unicode="Z" horiz-adv-x="1365" 
d="M141 0v161l784 1061v17h-760v204h1041v-161l-780 -1061v-17h799v-204h-1084z" />
    <glyph glyph-name="bracketleft" unicode="[" horiz-adv-x="790" 
d="M172 1444h496v-174h-288v-1337h300v-173h-508v1684z" />
    <glyph glyph-name="backslash" unicode="\" horiz-adv-x="733" 
d="M487 -309l-433 1752h195l431 -1752h-193z" />
    <glyph glyph-name="bracketright" unicode="]" horiz-adv-x="790" 
d="M618 1444v-1684h-508v173h300v1337h-287v174h495z" />
    <glyph glyph-name="asciicircum" unicode="^" horiz-adv-x="1014" 
d="M498 1237l-206 -461h-197l304 638h215l304 -638h-196l-207 461h-17z" />
    <glyph glyph-name="underscore" unicode="_" horiz-adv-x="926" 
d="M934 -278h-941v171h941v-171z" />
    <glyph glyph-name="grave" unicode="`" horiz-adv-x="1095" 
d="M798 1271h-221l-282 344h252z" />
    <glyph glyph-name="a" unicode="a" horiz-adv-x="1158" 
d="M512 163q121 0 201.5 68t80.5 170v91l-266 -17q-112 -7 -165 -46t-53 -111t56 -113.5t146 -41.5zM457 -18q-160 0 -261.5 89.5t-101.5 236.5q0 146 105 229.5t300 95.5l295 17v94q0 87 -57 133.5t-166 46.5q-90 0 -149.5 -31.5t-77.5 -89.5h-208q16 140 137.5 223.5
t307.5 83.5q204 0 315.5 -96.5t111.5 -269.5v-744h-207v153h-17q-49 -82 -134.5 -126.5t-192.5 -44.5z" />
    <glyph glyph-name="b" unicode="b" horiz-adv-x="1285" 
d="M733 -18q-114 0 -204.5 50t-139.5 140h-16v-172h-207v1514h215v-598h17q43 89 133 140t202 51q207 0 328.5 -151.5t121.5 -410.5t-122 -411t-328 -152zM671 914q-135 0 -214 -99.5t-80 -270.5q1 -171 79.5 -270t214.5 -99t213.5 98.5t77.5 271.5q0 172 -77.5 270.5
t-213.5 98.5z" />
    <glyph glyph-name="c" unicode="c" horiz-adv-x="1167" 
d="M1078 733h-209q-20 83 -86.5 134t-170.5 51q-135 0 -212.5 -98t-77.5 -272q0 -176 77.5 -276.5t212.5 -100.5q103 0 169.5 46t87.5 133h209q-21 -168 -144 -269.5t-321 -101.5q-238 0 -374.5 151.5t-136.5 417.5q0 262 136 412t374 150q199 0 321.5 -104t144.5 -273z" />
    <glyph glyph-name="d" unicode="d" horiz-adv-x="1285" 
d="M554 -18q-208 0 -330 152t-122 411q0 258 122.5 410t329.5 152q112 0 201 -50.5t133 -140.5h16v598h215v-1514h-206v172h-17q-49 -89 -139.5 -139.5t-202.5 -50.5zM615 914q-136 0 -213.5 -98.5t-77.5 -270.5q0 -173 77.5 -271.5t213.5 -98.5t214.5 99t78.5 270
q0 170 -79 270t-214 100z" />
    <glyph glyph-name="e" unicode="e" horiz-adv-x="1192" 
d="M603 927q-119 0 -196 -77t-86 -205h550q-4 129 -76.5 205.5t-191.5 76.5zM870 294h207q-37 -147 -161.5 -231t-310.5 -84q-234 0 -368.5 150.5t-134.5 411.5t136 415t366 154q227 0 356.5 -146t129.5 -403v-75h-769v-12q5 -144 83 -228t207 -84q197 0 259 132z" />
    <glyph glyph-name="f" unicode="f" horiz-adv-x="775" 
d="M233 0v903h-179v181h179v106q0 163 87 238.5t261 75.5q56 0 116 -10v-172q-42 8 -95 8q-157 0 -157 -154v-92h243v-181h-240v-903h-215z" />
    <glyph glyph-name="g" unicode="g" horiz-adv-x="1274" 
d="M612 202q137 0 216 96t79 260q0 163 -79 259.5t-216 96.5t-213 -95.5t-76 -260.5t76 -260.5t213 -95.5zM615 -416q-202 0 -328 83.5t-143 223.5h220q14 -60 80.5 -95t173.5 -35q134 0 209.5 60.5t75.5 168.5v209h-16q-49 -88 -136 -135.5t-200 -47.5q-207 0 -328.5 147.5
t-121.5 393.5q0 250 122 400t330 150q112 0 204 -51.5t138 -140.5h17v174h206v-1098q0 -187 -136 -297t-367 -110z" />
    <glyph glyph-name="h" unicode="h" horiz-adv-x="1249" 
d="M166 0v1514h213v-600h17q40 93 125.5 144t206.5 51q175 0 275 -106.5t100 -299.5v-703h-215v650q0 130 -59 196t-174 66q-130 0 -202 -75t-72 -201v-636h-215z" />
    <glyph glyph-name="i" unicode="i" horiz-adv-x="534" 
d="M160 0v1089h214v-1089h-214zM267 1280q-60 0 -99.5 37.5t-39.5 93.5t39.5 94t99.5 38t99.5 -38t39.5 -94t-39.5 -93.5t-99.5 -37.5z" />
    <glyph glyph-name="j" unicode="j" horiz-adv-x="534" 
d="M374 1089v-1134q0 -167 -86.5 -247t-264.5 -80q-43 0 -48 1v180h30q85 0 120 34t35 114v1132h214zM267 1280q-60 0 -99.5 37.5t-39.5 93.5t39.5 94t99.5 38t99.5 -38t39.5 -94t-39.5 -93.5t-99.5 -37.5z" />
    <glyph glyph-name="k" unicode="k" horiz-adv-x="1155" 
d="M398 635l432 454h254l-448 -467l478 -622h-264l-374 480l-95 -90v-390h-215v1514h215v-879h17z" />
    <glyph glyph-name="l" unicode="l" horiz-adv-x="547" 
d="M166 0v1514h215v-1514h-215z" />
    <glyph glyph-name="m" unicode="m" horiz-adv-x="1824" 
d="M156 0v1089h207v-175h16q36 93 115.5 144.5t187.5 51.5q109 0 186 -52t114 -144h17q42 90 130.5 143t200.5 53q165 0 256.5 -95t91.5 -265v-750h-215v694q0 219 -211 219q-103 0 -166.5 -65t-63.5 -163v-685h-211v715q0 92 -57 145t-153 53q-98 0 -164 -71t-66 -176v-666
h-215z" />
    <glyph glyph-name="n" unicode="n" horiz-adv-x="1227" 
d="M156 0v1089h207v-173h16q85 194 325 194q182 0 279.5 -105t97.5 -300v-705h-215v651q0 262 -235 262q-119 0 -189.5 -74.5t-70.5 -201.5v-637h-215z" />
    <glyph glyph-name="o" unicode="o" horiz-adv-x="1231" 
d="M616 -21q-240 0 -377 151t-137 415q0 263 137.5 414t376.5 151q238 0 375.5 -151t137.5 -414q0 -264 -137 -415t-376 -151zM616 170q139 0 215.5 98.5t76.5 276.5q0 177 -76.5 275.5t-215.5 98.5q-140 0 -216 -98t-76 -276q0 -179 76 -277t216 -98z" />
    <glyph glyph-name="p" unicode="p" horiz-adv-x="1275" 
d="M721 1107q208 0 330 -151.5t122 -410.5t-121.5 -411t-328.5 -152q-116 0 -204 48.5t-131 134.5h-17v-527h-215v1451h207v-180h16q49 93 140 145.5t202 52.5zM660 175q137 0 214.5 98.5t77.5 271.5t-77.5 271t-213.5 98t-215 -99.5t-79 -270.5q0 -170 79 -269.5t214 -99.5
z" />
    <glyph glyph-name="q" unicode="q" horiz-adv-x="1275" 
d="M553 1107q111 0 202.5 -53.5t138.5 -144.5h17v180h208v-1451h-216v527h-17q-102 -183 -335 -183q-207 0 -328 151.5t-121 411.5q0 257 122.5 409.5t328.5 152.5zM612 175q137 0 216 99t79 270q0 170 -79 270t-215 100t-212.5 -98t-76.5 -271q0 -174 76 -272t212 -98z" />
    <glyph glyph-name="r" unicode="r" horiz-adv-x="820" 
d="M156 0v1089h207v-167h16q23 81 105.5 133t188.5 52q61 0 96 -9v-212q-39 13 -120 13q-123 0 -200.5 -71t-77.5 -185v-643h-215z" />
    <glyph glyph-name="s" unicode="s" horiz-adv-x="1104" 
d="M131 781q0 144 119 236.5t304 92.5q184 0 297 -81t129 -225h-206q-15 61 -72.5 96t-147.5 35q-91 0 -151 -39.5t-60 -102.5q0 -49 42 -81t131 -52l181 -42q157 -36 230.5 -107t73.5 -190q0 -152 -127 -247t-324 -95q-194 0 -313.5 82.5t-133.5 227.5h215q21 -64 81 -100
t156 -36q101 0 165 41t64 106q0 95 -160 133l-190 44q-156 37 -229.5 110t-73.5 194z" />
    <glyph glyph-name="t" unicode="t" horiz-adv-x="780" 
d="M232 1360h215v-276h236v-181h-236v-560q0 -85 37 -124.5t117 -39.5q32 0 82 5v-179q-64 -11 -117 -11q-179 0 -256.5 68t-77.5 226v615h-173v181h173v276z" />
    <glyph glyph-name="u" unicode="u" horiz-adv-x="1230" 
d="M1074 1089v-1089h-207v173h-17q-83 -194 -329 -194q-180 0 -277.5 105t-97.5 298v707h215v-651q0 -133 55.5 -196.5t173.5 -63.5q129 0 199 72.5t70 201.5v637h215z" />
    <glyph glyph-name="v" unicode="v" horiz-adv-x="1140" 
d="M1078 1089l-392 -1089h-231l-393 1089h230l271 -859h17l270 859h228z" />
    <glyph glyph-name="w" unicode="w" horiz-adv-x="1640" 
d="M1574 1089l-299 -1089h-223l-225 802h-17l-224 -802h-221l-300 1089h218l195 -831h16l224 831h206l224 -831h17l194 831h215z" />
    <glyph glyph-name="x" unicode="x" horiz-adv-x="1117" 
d="M563 386h-16l-238 -386h-236l361 542l-364 547h251l234 -384h17l232 384h239l-359 -538l363 -551h-247z" />
    <glyph glyph-name="y" unicode="y" horiz-adv-x="1152" 
d="M264 -395q-56 0 -89 5v185q23 -4 70 -4q77 0 123 35t74 117l16 53l-394 1093h234l273 -865h17l272 865h228l-406 -1134q-70 -198 -160.5 -274t-257.5 -76z" />
    <glyph glyph-name="z" unicode="z" horiz-adv-x="1124" 
d="M131 0v146l599 744v17h-595v182h852v-157l-586 -733v-17h592v-182h-862z" />
    <glyph glyph-name="braceleft" unicode="{" horiz-adv-x="861" 
d="M317 604q94 -9 142 -72t48 -176v-301q0 -118 51.5 -167t174.5 -49h45v-175h-76q-207 0 -304 89t-97 278v258q0 118 -38 163.5t-136 45.5v229q98 0 136 46.5t38 164.5v224q0 186 97 272t304 86h76v-175h-45q-124 0 -175 -48.5t-51 -168.5v-270q0 -219 -190 -237v-17z" />
    <glyph glyph-name="bar" unicode="|" horiz-adv-x="702" 
d="M447 -310h-191v1753h191v-1753z" />
    <glyph glyph-name="braceright" unicode="}" horiz-adv-x="861" 
d="M544 604v17q-190 18 -190 237v270q0 120 -51 168.5t-175 48.5h-45v175h76q207 0 304 -86t97 -272v-224q0 -118 38 -164.5t136 -46.5v-229q-98 0 -136 -45.5t-38 -163.5v-258q0 -189 -97 -278t-304 -89h-76v175h45q123 0 174.5 49t51.5 167v301q0 113 48 176t142 72z" />
    <glyph glyph-name="asciitilde" unicode="~" horiz-adv-x="1210" 
d="M560 630q-52 52 -85 72t-67 20q-124 0 -133 -178h-184q-1 183 78.5 282.5t232.5 99.5q65 0 124 -30t126 -98q50 -50 84 -70.5t66 -20.5q125 0 134 179h183q1 -186 -77 -284t-228 -98q-68 0 -127.5 29.5t-126.5 96.5z" />
    <glyph glyph-name="nonbreakingspace" unicode="&#xa0;" horiz-adv-x="560" 
 />
    <glyph glyph-name="exclamdown" unicode="&#xa1;" horiz-adv-x="670" 
d="M213 -333l21 966h202l20 -966h-243zM336 828q-70 0 -112.5 42t-42.5 111t42.5 111t112.5 42q69 0 111 -42t42 -111t-42 -111t-111 -42z" />
    <glyph glyph-name="cent" unicode="&#xa2;" horiz-adv-x="1359" 
d="M1198 517q-20 -149 -129 -245.5t-275 -118.5v-176h-197v179q-197 34 -317 182.5t-120 375.5q0 223 120.5 371t316.5 182v178h197v-175q163 -25 273.5 -124t130.5 -246h-209q-28 86 -104 135.5t-183 49.5q-139 0 -230.5 -101.5t-91.5 -269.5q0 -171 91.5 -273.5
t230.5 -102.5q116 0 190 47t97 132h209z" />
    <glyph glyph-name="sterling" unicode="&#xa3;" horiz-adv-x="1359" 
d="M457 199h760v-199h-1084v190q133 26 219.5 121t86.5 217q0 53 -15 116h-290v174h231q-61 158 -61 254q0 191 140.5 298.5t391.5 107.5q89 0 174 -14.5t137 -36.5v-197q-42 22 -125 37.5t-167 15.5q-152 0 -238 -61t-86 -169q0 -87 54 -235h451v-174h-395q13 -55 13 -103
q0 -109 -56 -196t-141 -130v-16z" />
    <glyph glyph-name="currency" unicode="&#xa4;" horiz-adv-x="1359" 
d="M427 653q0 -103 74.5 -177t178.5 -74t179 74t75 177q0 102 -75 176t-179 74q-103 0 -178 -74t-75 -176zM1190 1033l-159 -160q62 -102 62 -220q0 -119 -62 -221l159 -161l-128 -135l-161 163q-101 -66 -221 -66t-221 66l-162 -163l-127 135l160 162q-62 102 -62 220
t62 220l-160 160l127 135l162 -162q101 66 221 66t222 -66l160 162z" />
    <glyph glyph-name="yen" unicode="&#xa5;" horiz-adv-x="1359" 
d="M1066 242h-274v-242h-224v242h-275v150h275v152h-275v150h213l-447 749h249l363 -625h17l363 625h249l-446 -749h212v-150h-274v-152h274v-150z" />
    <glyph glyph-name="brokenbar" unicode="&#xa6;" horiz-adv-x="702" 
d="M447 774h-191v669h191v-669zM447 -310h-191v669h191v-669z" />
    <glyph glyph-name="section" unicode="&#xa7;" horiz-adv-x="1032" 
d="M456 424l92 -27q80 4 135 52.5t55 115.5q0 56 -41.5 96t-118.5 58l-92 27q-79 -4 -135 -53t-56 -115q0 -55 42.5 -95.5t118.5 -58.5zM519 -270q-177 0 -293.5 87.5t-125.5 227.5h204q9 -63 70.5 -102t151.5 -39q93 0 151 40t58 105q0 50 -42.5 84t-137.5 60l-154 47
q-162 48 -236.5 118t-74.5 176q0 95 58.5 165t162.5 100v17q-215 90 -215 273q0 145 114.5 234.5t300.5 89.5q172 0 283 -83.5t126 -223.5h-201q-9 60 -66.5 96.5t-144.5 36.5q-92 0 -148.5 -39.5t-56.5 -104.5q0 -50 41.5 -84t135.5 -61l152 -47q162 -49 236 -117.5
t74 -170.5q0 -100 -68 -177.5t-178 -103.5v-17q243 -70 243 -261q0 -145 -117 -235.5t-303 -90.5z" />
    <glyph glyph-name="dieresis" unicode="&#xa8;" horiz-adv-x="1122" 
d="M348 1265q-57 0 -95.5 38.5t-38.5 95.5t38.5 96t95.5 39q56 0 94.5 -39t38.5 -96t-38.5 -95.5t-94.5 -38.5zM775 1265q-56 0 -95 38.5t-39 95.5t39 96t95 39t94.5 -39t38.5 -96t-38.5 -95.5t-94.5 -38.5z" />
    <glyph glyph-name="copyright" unicode="&#xa9;" horiz-adv-x="1742" 
d="M871 -154q-164 0 -311 61.5t-252 167t-166.5 252.5t-61.5 311t61.5 311t166.5 252t252 166.5t311 61.5q220 0 401.5 -104t285.5 -285.5t104 -401.5t-104 -401.5t-285.5 -286t-401.5 -104.5zM871 -3q134 0 253 49.5t204.5 135t135 204.5t49.5 252t-49.5 252t-135 204
t-204.5 134.5t-253 49.5q-179 0 -326.5 -84.5t-231.5 -231.5t-84 -324q0 -178 84.5 -325t232 -231.5t325.5 -84.5zM1245 764h-157q-16 65 -70 104t-130 39q-105 0 -166 -72t-61 -196q0 -126 61 -198.5t166 -72.5q80 0 132 36t68 101h157q-17 -128 -113.5 -203t-243.5 -75
q-180 0 -285.5 111t-105.5 301q0 187 105.5 298t284.5 111q144 0 242 -77.5t116 -206.5z" />
    <glyph glyph-name="ordfeminine" unicode="&#xaa;" horiz-adv-x="974" 
d="M457 670q93 0 154.5 54t61.5 136v85l-206 -15q-173 -12 -173 -130q0 -60 44 -95t119 -35zM391 507q-136 0 -218 77t-82 205q0 125 89.5 196.5t258.5 81.5l231 14v77q1 64 -46.5 100t-132.5 36q-69 0 -114 -26t-55 -72h-196q10 124 110.5 196t261.5 72q174 0 272.5 -82.5
t98.5 -228.5v-624h-192v117h-17q-37 -66 -108 -102.5t-161 -36.5z" />
    <glyph glyph-name="guillemotleft" unicode="&#xab;" horiz-adv-x="1411" 
d="M399 573v-14l350 -411h-230l-348 413v8l350 414h228zM890 573v-14l350 -411h-231l-348 413v8l351 414h228z" />
    <glyph glyph-name="logicalnot" unicode="&#xac;" horiz-adv-x="1359" 
d="M1171 680v-583h-186v387h-797v196h983z" />
    <glyph glyph-name="registered" unicode="&#xae;" horiz-adv-x="1260" 
d="M630 444q-144 0 -264.5 70t-190.5 191t-70 265t70 265t190.5 191t264.5 70t265 -70t190.5 -191t69.5 -265q0 -219 -153 -372.5t-372 -153.5zM630 562q172 0 291 119t119 289q0 171 -119 289.5t-291 118.5q-171 0 -290.5 -118.5t-119.5 -289.5q0 -170 119.5 -289
t290.5 -119zM534 733h-108v494h251q77 0 127 -43.5t50 -111.5q0 -119 -112 -149l134 -190h-130l-123 175h-89v-175zM534 1131v-133h115q87 0 87 68q0 65 -85 65h-117z" />
    <glyph glyph-name="macron" unicode="&#xaf;" horiz-adv-x="1048" 
d="M872 1454v-155h-696v155h696z" />
    <glyph glyph-name="degree" unicode="&#xb0;" horiz-adv-x="909" 
d="M454 782q-144 0 -240.5 98.5t-96.5 241.5q0 144 96.5 242.5t240.5 98.5q145 0 241.5 -98.5t96.5 -242.5q0 -143 -96.5 -241.5t-241.5 -98.5zM454 931q86 0 139.5 55t53.5 136q0 82 -53.5 136.5t-139.5 54.5q-85 0 -138 -54.5t-53 -136.5q0 -81 52.5 -136t138.5 -55z" />
    <glyph glyph-name="plusminus" unicode="&#xb1;" horiz-adv-x="1359" 
d="M1185 94h-1011v182h1011v-182zM772 657v-267h-185v267h-413v174h413v266h185v-266h413v-174h-413z" />
    <glyph glyph-name="two.sups" unicode="&#xb2;" horiz-adv-x="857" 
d="M90 1535q0 134 92.5 217t242.5 83q145 0 235.5 -74.5t90.5 -194.5q0 -79 -46.5 -152.5t-169.5 -182.5l-160 -147v-17h390v-169h-663v144l292 279q96 91 128.5 137t32.5 92q0 53 -38.5 87t-99.5 34q-63 0 -102.5 -37.5t-39.5 -98.5v-4h-185v4z" />
    <glyph glyph-name="three.sups" unicode="&#xb3;" horiz-adv-x="888" 
d="M326 1290v146h111q63 0 102 33t39 86q0 52 -39 83.5t-103 31.5t-104 -33.5t-45 -90.5h-184q4 131 95.5 209t242.5 78q143 0 235 -69.5t92 -178.5q0 -78 -47 -134.5t-123 -70.5v-17q94 -8 149.5 -66.5t55.5 -148.5q0 -121 -101.5 -198.5t-259.5 -77.5q-157 0 -253.5 80
t-100.5 213h188q5 -56 49.5 -90t116.5 -34q71 0 115 35t44 90q0 58 -43 91t-119 33h-113z" />
    <glyph glyph-name="acute" unicode="&#xb4;" horiz-adv-x="1095" 
d="M498 1271h-222l251 344h252z" />
    <glyph glyph-name="mugreek" unicode="&#x3bc;" horiz-adv-x="1296" 
d="M156 -362v1451h215v-650q0 -261 228 -261q118 0 189 74t71 199v638h215v-788q0 -71 21.5 -98t74.5 -27q23 0 50 5v-178q-43 -13 -99 -13q-113 0 -168 40t-74 136l-3 13h-17q-35 -100 -100 -150t-169 -50q-147 0 -202 107h-17v-448h-215z" />
    <glyph glyph-name="mugreek" unicode="&#xb5;" horiz-adv-x="1296" 
d="M156 -362v1451h215v-650q0 -261 228 -261q118 0 189 74t71 199v638h215v-788q0 -71 21.5 -98t74.5 -27q23 0 50 5v-178q-43 -13 -99 -13q-113 0 -168 40t-74 136l-3 13h-17q-35 -100 -100 -150t-169 -50q-147 0 -202 107h-17v-448h-215z" />
    <glyph glyph-name="paragraph" unicode="&#xb6;" horiz-adv-x="1414" 
d="M882 -237h-216v754h-20q-210 0 -351 131t-141 327q0 203 140 335.5t353 132.5h235v-1680zM1036 -237v1680h216v-1680h-216z" />
    <glyph glyph-name="periodcentered" unicode="&#xb7;" horiz-adv-x="663" 
d="M332 584q-64 0 -107 44t-43 108q0 65 43 108.5t107 43.5t107 -43.5t43 -108.5q0 -64 -43 -108t-107 -44z" />
    <glyph glyph-name="cedilla" unicode="&#xb8;" horiz-adv-x="1095" 
d="M398 -235v97l68 162h136v-24l-48 -122q99 -2 153.5 -46t54.5 -123q0 -89 -67 -142t-185 -53q-85 0 -147 17v120q46 -14 120 -14q116 0 116 67q0 32 -33 46.5t-109 14.5h-59z" />
    <glyph glyph-name="one.sups" unicode="&#xb9;" horiz-adv-x="699" 
d="M321 898v715h-17q-11 -7 -113.5 -78t-104.5 -73v188q89 67 234 162h197v-914h-196z" />
    <glyph glyph-name="ordmasculine" unicode="&#xba;" horiz-adv-x="1054" 
d="M527 507q-204 0 -320.5 127.5t-116.5 350.5q0 221 117.5 349.5t319.5 128.5q203 0 319.5 -127.5t116.5 -350.5q0 -224 -116 -351t-320 -127zM527 681q108 0 167.5 79.5t59.5 224.5t-59.5 224.5t-167.5 79.5t-167.5 -80t-59.5 -224q0 -145 59 -224.5t168 -79.5z" />
    <glyph glyph-name="guillemotright" unicode="&#xbb;" horiz-adv-x="1411" 
d="M521 573l-350 410h228l351 -414v-8l-348 -413h-231l350 411v14zM1012 573l-350 410h228l350 -414v-8l-348 -413h-230l350 411v14z" />
    <glyph glyph-name="onequarter" unicode="&#xbc;" horiz-adv-x="2051" 
d="M1663 0v154h-463v173q48 93 125.5 216t245.5 371h280v-595h117v-161h-120v-158h-185zM1379 320v-6h285v441h-8q-210 -314 -277 -435zM321 529v715h-17q-11 -7 -113.5 -78t-104.5 -73v188q89 67 234 162h197v-914h-196zM733 0h-205l356 754l303 689h205l-347 -730z" />
    <glyph glyph-name="onehalf" unicode="&#xbd;" horiz-adv-x="2055" 
d="M1288 637q0 134 92.5 217t242.5 83q145 0 235.5 -74.5t90.5 -194.5q0 -79 -46.5 -152.5t-169.5 -182.5l-160 -147v-17h390v-169h-663v144l292 279q96 91 128.5 137t32.5 92q0 53 -38.5 87t-99.5 34q-63 0 -102.5 -37.5t-39.5 -98.5v-4h-185v4zM321 529v715h-17
q-11 -7 -113.5 -78t-104.5 -73v188q89 67 234 162h197v-914h-196zM733 0h-205l356 754l303 689h205l-347 -730z" />
    <glyph glyph-name="threequarters" unicode="&#xbe;" horiz-adv-x="2230" 
d="M326 921v146h111q63 0 102 33t39 86q0 52 -39 83.5t-103 31.5t-104 -33.5t-45 -90.5h-184q4 131 95.5 209t242.5 78q143 0 235 -69.5t92 -178.5q0 -78 -47 -134.5t-123 -70.5v-17q94 -8 149.5 -66.5t55.5 -148.5q0 -121 -101.5 -198.5t-259.5 -77.5q-157 0 -253.5 80
t-100.5 213h188q5 -56 49.5 -90t116.5 -34q71 0 115 35t44 90q0 58 -43 91t-119 33h-113zM1843 0v154h-463v173q48 93 125.5 216t245.5 371h280v-595h117v-161h-120v-158h-185zM1559 320v-6h285v441h-8q-210 -314 -277 -435zM912 0h-205l356 754l303 689h205l-347 -730z" />
    <glyph glyph-name="questiondown" unicode="&#xbf;" horiz-adv-x="1083" 
d="M1004 58q-7 -180 -125 -292t-328 -112q-198 0 -321 105.5t-123 270.5q0 214 211 340q96 58 130.5 106t34.5 125v59h207l1 -75q4 -107 -41.5 -180t-150.5 -136q-91 -56 -127.5 -106.5t-36.5 -123.5q0 -85 62 -138.5t164 -53.5q103 0 165.5 56.5t69.5 154.5h208zM576 827
q-69 0 -112 42t-43 111q0 68 43 110.5t112 42.5t111 -42.5t42 -110.5q0 -69 -42 -111t-111 -42z" />
    <glyph glyph-name="Agrave" unicode="&#xc0;" horiz-adv-x="1423" 
d="M1115 0l-132 383h-550l-133 -383h-230l521 1443h241l521 -1443h-238zM700 1181l-210 -610h436l-209 610h-17zM599 1582l-326 306h258l298 -306h-230z" />
    <glyph glyph-name="Aacute" unicode="&#xc1;" horiz-adv-x="1423" 
d="M1115 0l-132 383h-550l-133 -383h-230l521 1443h241l521 -1443h-238zM700 1181l-210 -610h436l-209 610h-17zM824 1582h-230l297 306h258z" />
    <glyph glyph-name="Acircumflex" unicode="&#xc2;" horiz-adv-x="1423" 
d="M1115 0l-132 383h-550l-133 -383h-230l521 1443h241l521 -1443h-238zM700 1181l-210 -610h436l-209 610h-17zM611 1896h202l295 -314h-225l-163 181h-16l-163 -181h-225z" />
    <glyph glyph-name="Atilde" unicode="&#xc3;" horiz-adv-x="1423" 
d="M1115 0l-132 383h-550l-133 -383h-230l521 1443h241l521 -1443h-238zM700 1181l-210 -610h436l-209 610h-17zM858 1577q-44 0 -81.5 15.5t-63.5 37.5t-48 44.5t-45 38t-44 15.5q-49 0 -71.5 -36t-22.5 -114h-158q0 140 65 222t177 82q44 0 81.5 -15.5t63.5 -38t48 -44.5
t45 -37.5t44 -15.5q49 0 71.5 35t22.5 113h158q0 -140 -65 -221t-177 -81z" />
    <glyph glyph-name="Adieresis" unicode="&#xc4;" horiz-adv-x="1423" 
d="M1115 0l-132 383h-550l-133 -383h-230l521 1443h241l521 -1443h-238zM700 1181l-210 -610h436l-209 610h-17zM499 1577q-57 0 -95.5 38.5t-38.5 95.5t38.5 96t95.5 39q56 0 94.5 -39t38.5 -96t-38.5 -95.5t-94.5 -38.5zM926 1577q-56 0 -95 38.5t-39 95.5t39 96t95 39
t94.5 -39t38.5 -96t-38.5 -95.5t-94.5 -38.5z" />
    <glyph glyph-name="Aring" unicode="&#xc5;" horiz-adv-x="1423" 
d="M1115 0l-132 383h-550l-133 -383h-230l521 1443h241l521 -1443h-238zM700 1181l-210 -610h436l-209 610h-17zM712 1549q-84 0 -142.5 57t-58.5 141t58 141t143 57t143 -57t58 -141t-58 -141t-143 -57zM712 1647q44 0 72.5 28.5t28.5 71.5q0 44 -28.5 72t-72.5 28
t-72.5 -28t-28.5 -72q0 -43 28.5 -71.5t72.5 -28.5z" />
    <glyph glyph-name="AE" unicode="&#xc6;" horiz-adv-x="1999" 
d="M847 1253l-288 -647h428v647h-140zM987 0v417h-504l-189 -417h-224l631 1443h1156v-204h-655v-415h618v-195h-618v-425h655v-204h-870z" />
    <glyph glyph-name="Ccedilla" unicode="&#xc7;" horiz-adv-x="1485" 
d="M1372 978h-223q-32 133 -133.5 212t-243.5 79q-194 0 -307.5 -147.5t-113.5 -400.5q0 -252 113.5 -399.5t308.5 -147.5q143 0 244.5 72t131.5 194h223q-28 -198 -172 -325.5t-359 -146.5l-35 -90q99 -2 153.5 -46t54.5 -123q0 -89 -67 -142t-185 -53q-85 0 -147 17v120
q46 -14 120 -14q116 0 116 67q0 32 -33 46.5t-109 14.5h-59v97l45 107q-267 26 -420 226t-153 526q0 351 174.5 554t475.5 203q238 0 405.5 -139.5t194.5 -360.5z" />
    <glyph glyph-name="Egrave" unicode="&#xc8;" horiz-adv-x="1239" 
d="M526 1582l-326 306h258l298 -306h-230zM1097 204v-204h-916v1443h916v-204h-692v-408h655v-194h-655v-433h692z" />
    <glyph glyph-name="Eacute" unicode="&#xc9;" horiz-adv-x="1239" 
d="M751 1582h-230l297 306h258zM1097 204v-204h-916v1443h916v-204h-692v-408h655v-194h-655v-433h692z" />
    <glyph glyph-name="Ecircumflex" unicode="&#xca;" horiz-adv-x="1239" 
d="M538 1896h202l295 -314h-225l-163 181h-16l-163 -181h-225zM1097 204v-204h-916v1443h916v-204h-692v-408h655v-194h-655v-433h692z" />
    <glyph glyph-name="Edieresis" unicode="&#xcb;" horiz-adv-x="1239" 
d="M426 1577q-57 0 -95.5 38.5t-38.5 95.5t38.5 96t95.5 39q56 0 94.5 -39t38.5 -96t-38.5 -95.5t-94.5 -38.5zM853 1577q-56 0 -95 38.5t-39 95.5t39 96t95 39t94.5 -39t38.5 -96t-38.5 -95.5t-94.5 -38.5zM1097 204v-204h-916v1443h916v-204h-692v-408h655v-194h-655v-433
h692z" />
    <glyph glyph-name="Igrave" unicode="&#xcc;" horiz-adv-x="585" 
d="M405 0h-224v1443h224v-1443zM180 1582l-326 306h258l298 -306h-230z" />
    <glyph glyph-name="Iacute" unicode="&#xcd;" horiz-adv-x="585" 
d="M405 0h-224v1443h224v-1443zM405 1582h-230l297 306h258z" />
    <glyph glyph-name="Icircumflex" unicode="&#xce;" horiz-adv-x="585" 
d="M405 0h-224v1443h224v-1443zM192 1896h202l295 -314h-225l-163 181h-16l-163 -181h-225z" />
    <glyph glyph-name="Idieresis" unicode="&#xcf;" horiz-adv-x="585" 
d="M405 0h-224v1443h224v-1443zM80 1577q-57 0 -95.5 38.5t-38.5 95.5t38.5 96t95.5 39q56 0 94.5 -39t38.5 -96t-38.5 -95.5t-94.5 -38.5zM507 1577q-56 0 -95 38.5t-39 95.5t39 96t95 39t94.5 -39t38.5 -96t-38.5 -95.5t-94.5 -38.5z" />
    <glyph glyph-name="Eth" unicode="&#xd0;" horiz-adv-x="1502" 
d="M405 204h272q227 0 351.5 135.5t124.5 383.5q0 244 -125.5 380t-350.5 136h-272v-405h240v-191h-240v-439zM181 1443h521q321 0 500 -188.5t179 -528.5q0 -346 -178 -536t-501 -190h-521v643h-146v191h146v609z" />
    <glyph glyph-name="Ntilde" unicode="&#xd1;" horiz-adv-x="1539" 
d="M914 1577q-44 0 -81.5 15.5t-63.5 37.5t-48 44.5t-45 38t-44 15.5q-49 0 -71.5 -36t-22.5 -114h-158q0 140 65 222t177 82q44 0 81.5 -15.5t63.5 -38t48 -44.5t45 -37.5t44 -15.5q49 0 71.5 35t22.5 113h158q0 -140 -65 -221t-177 -81zM399 0h-218v1443h202l741 -1025h16
v1025h218v-1443h-202l-741 1025h-16v-1025z" />
    <glyph glyph-name="Ograve" unicode="&#xd2;" horiz-adv-x="1590" 
d="M683 1582l-326 306h258l298 -306h-230zM796 1478q312 0 492 -203.5t180 -552.5t-180 -553t-492 -204q-313 0 -493.5 203.5t-180.5 553.5q0 349 181.5 552.5t492.5 203.5zM796 1269q-204 0 -324.5 -148t-120.5 -399t119 -399.5t326 -148.5q205 0 324 148.5t119 399.5
q0 252 -119 399.5t-324 147.5z" />
    <glyph glyph-name="Oacute" unicode="&#xd3;" horiz-adv-x="1590" 
d="M908 1582h-230l297 306h258zM796 1478q312 0 492 -203.5t180 -552.5t-180 -553t-492 -204q-313 0 -493.5 203.5t-180.5 553.5q0 349 181.5 552.5t492.5 203.5zM796 1269q-204 0 -324.5 -148t-120.5 -399t119 -399.5t326 -148.5q205 0 324 148.5t119 399.5
q0 252 -119 399.5t-324 147.5z" />
    <glyph glyph-name="Ocircumflex" unicode="&#xd4;" horiz-adv-x="1590" 
d="M695 1896h202l295 -314h-225l-163 181h-16l-163 -181h-225zM796 1478q312 0 492 -203.5t180 -552.5t-180 -553t-492 -204q-313 0 -493.5 203.5t-180.5 553.5q0 349 181.5 552.5t492.5 203.5zM796 1269q-204 0 -324.5 -148t-120.5 -399t119 -399.5t326 -148.5
q205 0 324 148.5t119 399.5q0 252 -119 399.5t-324 147.5z" />
    <glyph glyph-name="Otilde" unicode="&#xd5;" horiz-adv-x="1590" 
d="M796 1478q312 0 492 -203.5t180 -552.5t-180 -553t-492 -204q-313 0 -493.5 203.5t-180.5 553.5q0 349 181.5 552.5t492.5 203.5zM796 1269q-204 0 -324.5 -148t-120.5 -399t119 -399.5t326 -148.5q205 0 324 148.5t119 399.5q0 252 -119 399.5t-324 147.5zM942 1577
q-44 0 -81.5 15.5t-63.5 37.5t-48 44.5t-45 38t-44 15.5q-49 0 -71.5 -36t-22.5 -114h-158q0 140 65 222t177 82q44 0 81.5 -15.5t63.5 -38t48 -44.5t45 -37.5t44 -15.5q49 0 71.5 35t22.5 113h158q0 -140 -65 -221t-177 -81z" />
    <glyph glyph-name="Odieresis" unicode="&#xd6;" horiz-adv-x="1590" 
d="M583 1577q-57 0 -95.5 38.5t-38.5 95.5t38.5 96t95.5 39q56 0 94.5 -39t38.5 -96t-38.5 -95.5t-94.5 -38.5zM1010 1577q-56 0 -95 38.5t-39 95.5t39 96t95 39t94.5 -39t38.5 -96t-38.5 -95.5t-94.5 -38.5zM796 1478q312 0 492 -203.5t180 -552.5t-180 -553t-492 -204
q-313 0 -493.5 203.5t-180.5 553.5q0 349 181.5 552.5t492.5 203.5zM796 1269q-204 0 -324.5 -148t-120.5 -399t119 -399.5t326 -148.5q205 0 324 148.5t119 399.5q0 252 -119 399.5t-324 147.5z" />
    <glyph glyph-name="multiply" unicode="&#xd7;" horiz-adv-x="1359" 
d="M680 443l-307 -305l-130 138l306 306l-306 306l130 138l307 -305l306 305l130 -138l-306 -306l306 -306l-130 -138z" />
    <glyph glyph-name="Oslash" unicode="&#xd8;" horiz-adv-x="1566" 
d="M1133 1105l-609 -838q110 -93 272 -93q205 0 324 148.5t119 399.5q0 236 -106 383zM442 362l605 830q-105 77 -251 77q-204 0 -324.5 -148t-120.5 -399q0 -217 91 -360zM1370 1432l-100 -138q198 -204 198 -572q0 -349 -180 -553t-492 -204q-236 0 -404 121l-103 -142
l-101 71l113 155q-179 202 -179 552q0 349 181.5 552.5t492.5 203.5q223 0 382 -107l91 125z" />
    <glyph glyph-name="Ugrave" unicode="&#xd9;" horiz-adv-x="1539" 
d="M656 1582l-326 306h258l298 -306h-230zM409 1443v-926q0 -154 95.5 -248t264.5 -94q170 0 265.5 94t95.5 248v926h224v-946q0 -238 -158.5 -385t-426.5 -147t-426 147t-158 385v946h224z" />
    <glyph glyph-name="Uacute" unicode="&#xda;" horiz-adv-x="1539" 
d="M881 1582h-230l297 306h258zM409 1443v-926q0 -154 95.5 -248t264.5 -94q170 0 265.5 94t95.5 248v926h224v-946q0 -238 -158.5 -385t-426.5 -147t-426 147t-158 385v946h224z" />
    <glyph glyph-name="Ucircumflex" unicode="&#xdb;" horiz-adv-x="1539" 
d="M668 1896h202l295 -314h-225l-163 181h-16l-163 -181h-225zM409 1443v-926q0 -154 95.5 -248t264.5 -94q170 0 265.5 94t95.5 248v926h224v-946q0 -238 -158.5 -385t-426.5 -147t-426 147t-158 385v946h224z" />
    <glyph glyph-name="Udieresis" unicode="&#xdc;" horiz-adv-x="1539" 
d="M556 1577q-57 0 -95.5 38.5t-38.5 95.5t38.5 96t95.5 39q56 0 94.5 -39t38.5 -96t-38.5 -95.5t-94.5 -38.5zM983 1577q-56 0 -95 38.5t-39 95.5t39 96t95 39t94.5 -39t38.5 -96t-38.5 -95.5t-94.5 -38.5zM409 1443v-926q0 -154 95.5 -248t264.5 -94q170 0 265.5 94
t95.5 248v926h224v-946q0 -238 -158.5 -385t-426.5 -147t-426 147t-158 385v946h224z" />
    <glyph glyph-name="Yacute" unicode="&#xdd;" horiz-adv-x="1383" 
d="M803 0h-224v582l-508 861h249l363 -625h17l363 625h249l-509 -861v-582zM803 1582h-230l297 306h258z" />
    <glyph glyph-name="Thorn" unicode="&#xde;" horiz-adv-x="1315" 
d="M181 1443h224v-251h350q186 0 313.5 -118.5t127.5 -317.5q0 -132 -62 -233t-163 -152t-223 -51h-343v-320h-224v1443zM405 993v-476h287q125 0 200 61.5t75 177.5t-75 176.5t-200 60.5h-287z" />
    <glyph glyph-name="germandbls" unicode="&#xdf;" horiz-adv-x="1320" 
d="M427 0h-214v1091q0 184 122.5 291.5t325.5 107.5q196 0 320 -105t124 -271q0 -120 -63.5 -210t-161.5 -119v-19q154 -13 244.5 -108t90.5 -254q0 -184 -128 -301t-337 -117q-99 0 -158 14v191q60 -15 131 -15q131 0 203.5 65t72.5 173q0 110 -83.5 173.5t-232.5 63.5h-65
v202h50q104 0 165.5 61t61.5 172q0 92 -62 151.5t-168 59.5q-113 0 -175.5 -63t-62.5 -179v-1055z" />
    <glyph glyph-name="agrave" unicode="&#xe0;" horiz-adv-x="1158" 
d="M512 163q121 0 201.5 68t80.5 170v91l-266 -17q-112 -7 -165 -46t-53 -111t56 -113.5t146 -41.5zM457 -18q-160 0 -261.5 89.5t-101.5 236.5q0 146 105 229.5t300 95.5l295 17v94q0 87 -57 133.5t-166 46.5q-90 0 -149.5 -31.5t-77.5 -89.5h-208q16 140 137.5 223.5
t307.5 83.5q204 0 315.5 -96.5t111.5 -269.5v-744h-207v153h-17q-49 -82 -134.5 -126.5t-192.5 -44.5zM716 1271h-221l-282 344h252z" />
    <glyph glyph-name="aacute" unicode="&#xe1;" horiz-adv-x="1158" 
d="M512 163q121 0 201.5 68t80.5 170v91l-266 -17q-112 -7 -165 -46t-53 -111t56 -113.5t146 -41.5zM457 -18q-160 0 -261.5 89.5t-101.5 236.5q0 146 105 229.5t300 95.5l295 17v94q0 87 -57 133.5t-166 46.5q-90 0 -149.5 -31.5t-77.5 -89.5h-208q16 140 137.5 223.5
t307.5 83.5q204 0 315.5 -96.5t111.5 -269.5v-744h-207v153h-17q-49 -82 -134.5 -126.5t-192.5 -44.5zM674 1271h-222l251 344h252z" />
    <glyph glyph-name="acircumflex" unicode="&#xe2;" horiz-adv-x="1158" 
d="M512 163q121 0 201.5 68t80.5 170v91l-266 -17q-112 -7 -165 -46t-53 -111t56 -113.5t146 -41.5zM457 -18q-160 0 -261.5 89.5t-101.5 236.5q0 146 105 229.5t300 95.5l295 17v94q0 87 -57 133.5t-166 46.5q-90 0 -149.5 -31.5t-77.5 -89.5h-208q16 140 137.5 223.5
t307.5 83.5q204 0 315.5 -96.5t111.5 -269.5v-744h-207v153h-17q-49 -82 -134.5 -126.5t-192.5 -44.5zM698 1584l279 -346h-221l-167 219h-16l-167 -219h-222l280 346h234z" />
    <glyph glyph-name="atilde" unicode="&#xe3;" horiz-adv-x="1158" 
d="M512 163q121 0 201.5 68t80.5 170v91l-266 -17q-112 -7 -165 -46t-53 -111t56 -113.5t146 -41.5zM457 -18q-160 0 -261.5 89.5t-101.5 236.5q0 146 105 229.5t300 95.5l295 17v94q0 87 -57 133.5t-166 46.5q-90 0 -149.5 -31.5t-77.5 -89.5h-208q16 140 137.5 223.5
t307.5 83.5q204 0 315.5 -96.5t111.5 -269.5v-744h-207v153h-17q-49 -82 -134.5 -126.5t-192.5 -44.5zM729 1241q-44 0 -81.5 15.5t-63.5 37.5t-48 44.5t-45 38t-44 15.5q-49 0 -71.5 -36t-22.5 -114h-158q0 140 65 222t177 82q44 0 81.5 -15.5t63.5 -38t48 -44.5t45 -37.5
t44 -15.5q49 0 71.5 35t22.5 113h158q0 -140 -65 -221t-177 -81z" />
    <glyph glyph-name="adieresis" unicode="&#xe4;" horiz-adv-x="1158" 
d="M512 163q121 0 201.5 68t80.5 170v91l-266 -17q-112 -7 -165 -46t-53 -111t56 -113.5t146 -41.5zM457 -18q-160 0 -261.5 89.5t-101.5 236.5q0 146 105 229.5t300 95.5l295 17v94q0 87 -57 133.5t-166 46.5q-90 0 -149.5 -31.5t-77.5 -89.5h-208q16 140 137.5 223.5
t307.5 83.5q204 0 315.5 -96.5t111.5 -269.5v-744h-207v153h-17q-49 -82 -134.5 -126.5t-192.5 -44.5zM368 1238q-57 0 -95.5 38.5t-38.5 95.5t38.5 96t95.5 39q56 0 94.5 -39t38.5 -96t-38.5 -95.5t-94.5 -38.5zM795 1238q-56 0 -95 38.5t-39 95.5t39 96t95 39t94.5 -39
t38.5 -96t-38.5 -95.5t-94.5 -38.5z" />
    <glyph glyph-name="aring" unicode="&#xe5;" horiz-adv-x="1158" 
d="M512 163q121 0 201.5 68t80.5 170v91l-266 -17q-112 -7 -165 -46t-53 -111t56 -113.5t146 -41.5zM457 -18q-160 0 -261.5 89.5t-101.5 236.5q0 146 105 229.5t300 95.5l295 17v94q0 87 -57 133.5t-166 46.5q-90 0 -149.5 -31.5t-77.5 -89.5h-208q16 140 137.5 223.5
t307.5 83.5q204 0 315.5 -96.5t111.5 -269.5v-744h-207v153h-17q-49 -82 -134.5 -126.5t-192.5 -44.5zM581 1238q-99 0 -168 67.5t-69 166.5t68.5 166t168.5 67t168.5 -67t68.5 -166t-69 -166.5t-168 -67.5zM581 1357q50 0 83 32.5t33 82.5q0 49 -33 81.5t-83 32.5
t-83 -32.5t-33 -81.5q0 -50 33 -82.5t83 -32.5z" />
    <glyph glyph-name="ae" unicode="&#xe6;" horiz-adv-x="1865" 
d="M1297 -21q-129 0 -235.5 59.5t-152.5 156.5h-17q-56 -101 -161.5 -158.5t-244.5 -57.5q-177 0 -284.5 90t-107.5 239q0 146 105 229.5t300 95.5l295 17v87q0 91 -57.5 139t-165.5 48q-91 0 -150 -31.5t-77 -89.5h-208q16 137 136 222t298 85q126 0 215.5 -47t135.5 -126
h17q52 77 147.5 125t208.5 48q219 0 344 -143.5t125 -394.5v-79h-760v-21q5 -141 85.5 -225t210.5 -84q180 0 245 131h207q-38 -149 -157.5 -232t-296.5 -83zM1282 928q-120 0 -195.5 -75t-83.5 -201h542q-4 122 -77 199t-186 77zM520 161q119 0 196.5 71t77.5 172v88
l-266 -17q-112 -7 -165 -46t-53 -112t57.5 -114.5t152.5 -41.5z" />
    <glyph glyph-name="ccedilla" unicode="&#xe7;" horiz-adv-x="1167" 
d="M1078 733h-209q-20 83 -86.5 134t-170.5 51q-135 0 -212.5 -98t-77.5 -272q0 -176 77.5 -276.5t212.5 -100.5q103 0 169.5 46t87.5 133h209q-19 -151 -121.5 -249.5t-268.5 -117.5l-41 -105q99 -2 153.5 -46t54.5 -123q0 -89 -67 -142t-185 -53q-85 0 -147 17v120
q46 -14 120 -14q116 0 116 67q0 32 -33 46.5t-109 14.5h-59v97l51 121q-207 23 -323.5 171.5t-116.5 393.5q0 262 136 412t374 150q199 0 321.5 -104t144.5 -273z" />
    <glyph glyph-name="egrave" unicode="&#xe8;" horiz-adv-x="1192" 
d="M739 1271h-221l-282 344h252zM603 927q-119 0 -196 -77t-86 -205h550q-4 129 -76.5 205.5t-191.5 76.5zM870 294h207q-37 -147 -161.5 -231t-310.5 -84q-234 0 -368.5 150.5t-134.5 411.5t136 415t366 154q227 0 356.5 -146t129.5 -403v-75h-769v-12q5 -144 83 -228
t207 -84q197 0 259 132z" />
    <glyph glyph-name="eacute" unicode="&#xe9;" horiz-adv-x="1192" 
d="M697 1271h-222l251 344h252zM603 927q-119 0 -196 -77t-86 -205h550q-4 129 -76.5 205.5t-191.5 76.5zM870 294h207q-37 -147 -161.5 -231t-310.5 -84q-234 0 -368.5 150.5t-134.5 411.5t136 415t366 154q227 0 356.5 -146t129.5 -403v-75h-769v-12q5 -144 83 -228
t207 -84q197 0 259 132z" />
    <glyph glyph-name="ecircumflex" unicode="&#xea;" horiz-adv-x="1192" 
d="M721 1584l279 -346h-221l-167 219h-16l-167 -219h-222l280 346h234zM603 927q-119 0 -196 -77t-86 -205h550q-4 129 -76.5 205.5t-191.5 76.5zM870 294h207q-37 -147 -161.5 -231t-310.5 -84q-234 0 -368.5 150.5t-134.5 411.5t136 415t366 154q227 0 356.5 -146
t129.5 -403v-75h-769v-12q5 -144 83 -228t207 -84q197 0 259 132z" />
    <glyph glyph-name="edieresis" unicode="&#xeb;" horiz-adv-x="1192" 
d="M603 927q-119 0 -196 -77t-86 -205h550q-4 129 -76.5 205.5t-191.5 76.5zM870 294h207q-37 -147 -161.5 -231t-310.5 -84q-234 0 -368.5 150.5t-134.5 411.5t136 415t366 154q227 0 356.5 -146t129.5 -403v-75h-769v-12q5 -144 83 -228t207 -84q197 0 259 132zM391 1238
q-57 0 -95.5 38.5t-38.5 95.5t38.5 96t95.5 39q56 0 94.5 -39t38.5 -96t-38.5 -95.5t-94.5 -38.5zM818 1238q-56 0 -95 38.5t-39 95.5t39 96t95 39t94.5 -39t38.5 -96t-38.5 -95.5t-94.5 -38.5z" />
    <glyph glyph-name="igrave" unicode="&#xec;" horiz-adv-x="534" 
d="M402 1271h-221l-282 344h252zM160 0v1089h214v-1089h-214z" />
    <glyph glyph-name="iacute" unicode="&#xed;" horiz-adv-x="534" 
d="M360 1271h-222l251 344h252zM160 0v1089h214v-1089h-214z" />
    <glyph glyph-name="icircumflex" unicode="&#xee;" horiz-adv-x="534" 
d="M384 1584l279 -346h-221l-167 219h-16l-167 -219h-222l280 346h234zM160 0v1089h214v-1089h-214z" />
    <glyph glyph-name="idieresis" unicode="&#xef;" horiz-adv-x="534" 
d="M160 0v1089h214v-1089h-214zM54 1238q-57 0 -95.5 38.5t-38.5 95.5t38.5 96t95.5 39q56 0 94.5 -39t38.5 -96t-38.5 -95.5t-94.5 -38.5zM481 1238q-56 0 -95 38.5t-39 95.5t39 96t95 39t94.5 -39t38.5 -96t-38.5 -95.5t-94.5 -38.5z" />
    <glyph glyph-name="eth" unicode="&#xf0;" horiz-adv-x="1220" 
d="M614 -18q-235 0 -372.5 147t-137.5 397q0 237 125.5 383t329.5 146q97 0 182.5 -42t122.5 -108h16q-44 165 -178 321l-281 -92l-42 125l230 76q-64 67 -215 187h263q70 -56 135 -124l255 85l43 -126l-207 -68q115 -148 175.5 -328.5t60.5 -375.5q0 -277 -136.5 -440
t-368.5 -163zM617 876q-133 0 -212.5 -95t-79.5 -255t79 -255.5t213 -95.5t213.5 95t79.5 255t-80 255.5t-213 95.5z" />
    <glyph glyph-name="ntilde" unicode="&#xf1;" horiz-adv-x="1227" 
d="M770 1241q-44 0 -81.5 15.5t-63.5 37.5t-48 44.5t-45 38t-44 15.5q-49 0 -71.5 -36t-22.5 -114h-158q0 140 65 222t177 82q44 0 81.5 -15.5t63.5 -38t48 -44.5t45 -37.5t44 -15.5q49 0 71.5 35t22.5 113h158q0 -140 -65 -221t-177 -81zM156 0v1089h207v-173h16
q85 194 325 194q182 0 279.5 -105t97.5 -300v-705h-215v651q0 262 -235 262q-119 0 -189.5 -74.5t-70.5 -201.5v-637h-215z" />
    <glyph glyph-name="ograve" unicode="&#xf2;" horiz-adv-x="1231" 
d="M751 1271h-221l-282 344h252zM616 -21q-240 0 -377 151t-137 415q0 263 137.5 414t376.5 151q238 0 375.5 -151t137.5 -414q0 -264 -137 -415t-376 -151zM616 170q139 0 215.5 98.5t76.5 276.5q0 177 -76.5 275.5t-215.5 98.5q-140 0 -216 -98t-76 -276q0 -179 76 -277
t216 -98z" />
    <glyph glyph-name="oacute" unicode="&#xf3;" horiz-adv-x="1231" 
d="M709 1271h-222l251 344h252zM616 -21q-240 0 -377 151t-137 415q0 263 137.5 414t376.5 151q238 0 375.5 -151t137.5 -414q0 -264 -137 -415t-376 -151zM616 170q139 0 215.5 98.5t76.5 276.5q0 177 -76.5 275.5t-215.5 98.5q-140 0 -216 -98t-76 -276q0 -179 76 -277
t216 -98z" />
    <glyph glyph-name="ocircumflex" unicode="&#xf4;" horiz-adv-x="1231" 
d="M733 1584l279 -346h-221l-167 219h-16l-167 -219h-222l280 346h234zM616 -21q-240 0 -377 151t-137 415q0 263 137.5 414t376.5 151q238 0 375.5 -151t137.5 -414q0 -264 -137 -415t-376 -151zM616 170q139 0 215.5 98.5t76.5 276.5q0 177 -76.5 275.5t-215.5 98.5
q-140 0 -216 -98t-76 -276q0 -179 76 -277t216 -98z" />
    <glyph glyph-name="otilde" unicode="&#xf5;" horiz-adv-x="1231" 
d="M764 1241q-44 0 -81.5 15.5t-63.5 37.5t-48 44.5t-45 38t-44 15.5q-49 0 -71.5 -36t-22.5 -114h-158q0 140 65 222t177 82q44 0 81.5 -15.5t63.5 -38t48 -44.5t45 -37.5t44 -15.5q49 0 71.5 35t22.5 113h158q0 -140 -65 -221t-177 -81zM616 -21q-240 0 -377 151t-137 415
q0 263 137.5 414t376.5 151q238 0 375.5 -151t137.5 -414q0 -264 -137 -415t-376 -151zM616 170q139 0 215.5 98.5t76.5 276.5q0 177 -76.5 275.5t-215.5 98.5q-140 0 -216 -98t-76 -276q0 -179 76 -277t216 -98z" />
    <glyph glyph-name="odieresis" unicode="&#xf6;" horiz-adv-x="1231" 
d="M403 1238q-57 0 -95.5 38.5t-38.5 95.5t38.5 96t95.5 39q56 0 94.5 -39t38.5 -96t-38.5 -95.5t-94.5 -38.5zM830 1238q-56 0 -95 38.5t-39 95.5t39 96t95 39t94.5 -39t38.5 -96t-38.5 -95.5t-94.5 -38.5zM616 -21q-240 0 -377 151t-137 415q0 263 137.5 414t376.5 151
q238 0 375.5 -151t137.5 -414q0 -264 -137 -415t-376 -151zM616 170q139 0 215.5 98.5t76.5 276.5q0 177 -76.5 275.5t-215.5 98.5q-140 0 -216 -98t-76 -276q0 -179 76 -277t216 -98z" />
    <glyph glyph-name="divide" unicode="&#xf7;" horiz-adv-x="1359" 
d="M680 813q-61 0 -100.5 39.5t-39.5 101.5t39.5 101.5t100.5 39.5q62 0 101 -39.5t39 -101.5t-39 -101.5t-101 -39.5zM680 68q-61 0 -100.5 39.5t-39.5 102.5q0 61 39.5 101t100.5 40t100.5 -39.5t39.5 -101.5q0 -63 -39 -102.5t-101 -39.5zM1200 491h-1040v182h1040v-182z
" />
    <glyph glyph-name="oslash" unicode="&#xf8;" horiz-adv-x="1231" 
d="M849 795l-383 -586q63 -39 150 -39q139 0 215.5 98.5t76.5 276.5q0 156 -59 250zM379 300l383 582q-63 37 -146 37q-140 0 -216 -98t-76 -276q0 -152 55 -245zM1035 1080l-65 -99q159 -153 159 -436q0 -264 -137 -415t-376 -151q-147 0 -261 60l-60 -92l-104 67l65 99
q-154 151 -154 432q0 263 137.5 414t376.5 151q147 0 257 -59l60 91z" />
    <glyph glyph-name="ugrave" unicode="&#xf9;" horiz-adv-x="1230" 
d="M745 1271h-221l-282 344h252zM1074 1089v-1089h-207v173h-17q-83 -194 -329 -194q-180 0 -277.5 105t-97.5 298v707h215v-651q0 -133 55.5 -196.5t173.5 -63.5q129 0 199 72.5t70 201.5v637h215z" />
    <glyph glyph-name="uacute" unicode="&#xfa;" horiz-adv-x="1230" 
d="M703 1271h-222l251 344h252zM1074 1089v-1089h-207v173h-17q-83 -194 -329 -194q-180 0 -277.5 105t-97.5 298v707h215v-651q0 -133 55.5 -196.5t173.5 -63.5q129 0 199 72.5t70 201.5v637h215z" />
    <glyph glyph-name="ucircumflex" unicode="&#xfb;" horiz-adv-x="1230" 
d="M727 1584l279 -346h-221l-167 219h-16l-167 -219h-222l280 346h234zM1074 1089v-1089h-207v173h-17q-83 -194 -329 -194q-180 0 -277.5 105t-97.5 298v707h215v-651q0 -133 55.5 -196.5t173.5 -63.5q129 0 199 72.5t70 201.5v637h215z" />
    <glyph glyph-name="udieresis" unicode="&#xfc;" horiz-adv-x="1230" 
d="M1074 1089v-1089h-207v173h-17q-83 -194 -329 -194q-180 0 -277.5 105t-97.5 298v707h215v-651q0 -133 55.5 -196.5t173.5 -63.5q129 0 199 72.5t70 201.5v637h215zM397 1238q-57 0 -95.5 38.5t-38.5 95.5t38.5 96t95.5 39q56 0 94.5 -39t38.5 -96t-38.5 -95.5
t-94.5 -38.5zM824 1238q-56 0 -95 38.5t-39 95.5t39 96t95 39t94.5 -39t38.5 -96t-38.5 -95.5t-94.5 -38.5z" />
    <glyph glyph-name="yacute" unicode="&#xfd;" horiz-adv-x="1152" 
d="M264 -395q-56 0 -89 5v185q23 -4 70 -4q77 0 123 35t74 117l16 53l-394 1093h234l273 -865h17l272 865h228l-406 -1134q-70 -198 -160.5 -274t-257.5 -76zM667 1271h-222l251 344h252z" />
    <glyph glyph-name="thorn" unicode="&#xfe;" horiz-adv-x="1287" 
d="M730 1107q208 0 330 -151.5t122 -410.5t-122 -411t-329 -152q-116 0 -204 48.5t-131 134.5h-17v-518h-215v1859h209v-597h16q50 93 140 145.5t201 52.5zM668 175q137 0 214.5 98.5t77.5 271.5t-77.5 271t-213.5 98t-215 -99.5t-79 -270.5q0 -170 79 -269.5t214 -99.5z
" />
    <glyph glyph-name="ydieresis" unicode="&#xff;" horiz-adv-x="1152" 
d="M264 -395q-56 0 -89 5v185q23 -4 70 -4q77 0 123 35t74 117l16 53l-394 1093h234l273 -865h17l272 865h228l-406 -1134q-70 -198 -160.5 -274t-257.5 -76zM361 1238q-57 0 -95.5 38.5t-38.5 95.5t38.5 96t95.5 39q56 0 94.5 -39t38.5 -96t-38.5 -95.5t-94.5 -38.5z
M788 1238q-56 0 -95 38.5t-39 95.5t39 96t95 39t94.5 -39t38.5 -96t-38.5 -95.5t-94.5 -38.5z" />
    <glyph glyph-name="Amacron" unicode="&#x100;" horiz-adv-x="1423" 
d="M1115 0l-132 383h-550l-133 -383h-230l521 1443h241l521 -1443h-238zM700 1181l-210 -610h436l-209 610h-17zM1062 1781v-156h-700v156h700z" />
    <glyph glyph-name="amacron" unicode="&#x101;" horiz-adv-x="1158" 
d="M512 163q121 0 201.5 68t80.5 170v91l-266 -17q-112 -7 -165 -46t-53 -111t56 -113.5t146 -41.5zM457 -18q-160 0 -261.5 89.5t-101.5 236.5q0 146 105 229.5t300 95.5l295 17v94q0 87 -57 133.5t-166 46.5q-90 0 -149.5 -31.5t-77.5 -89.5h-208q16 140 137.5 223.5
t307.5 83.5q204 0 315.5 -96.5t111.5 -269.5v-744h-207v153h-17q-49 -82 -134.5 -126.5t-192.5 -44.5zM929 1454v-155h-696v155h696z" />
    <glyph glyph-name="Abreve" unicode="&#x102;" horiz-adv-x="1423" 
d="M1115 0l-132 383h-550l-133 -383h-230l521 1443h241l521 -1443h-238zM700 1181l-210 -610h436l-209 610h-17zM335 1891h173q1 -78 56 -123.5t148 -45.5t148 45.5t56 123.5h173q0 -142 -101.5 -228t-275.5 -86t-275.5 86t-101.5 228z" />
    <glyph glyph-name="abreve" unicode="&#x103;" horiz-adv-x="1158" 
d="M512 163q121 0 201.5 68t80.5 170v91l-266 -17q-112 -7 -165 -46t-53 -111t56 -113.5t146 -41.5zM457 -18q-160 0 -261.5 89.5t-101.5 236.5q0 146 105 229.5t300 95.5l295 17v94q0 87 -57 133.5t-166 46.5q-90 0 -149.5 -31.5t-77.5 -89.5h-208q16 140 137.5 223.5
t307.5 83.5q204 0 315.5 -96.5t111.5 -269.5v-744h-207v153h-17q-49 -82 -134.5 -126.5t-192.5 -44.5zM202 1576h173q1 -85 55 -137.5t149 -52.5t149 52.5t55 137.5h173q0 -150 -102 -244t-275 -94t-275 94t-102 244z" />
    <glyph glyph-name="Aogonek" unicode="&#x104;" horiz-adv-x="1423" 
d="M700 1181l-210 -610h436l-209 610h-17zM1317 -428q-49 -19 -116 -19q-114 0 -184 60.5t-70 152.5q0 70 46.5 133t120.5 102l-131 382h-550l-133 -383h-230l521 1443h241l521 -1443l-25 -5q-81 -29 -136.5 -76.5t-55.5 -108.5q0 -45 32.5 -71t81.5 -26q48 0 67 7v-148z
" />
    <glyph glyph-name="aogonek" unicode="&#x105;" horiz-adv-x="1158" 
d="M512 163q121 0 201.5 68t80.5 170v91l-266 -17q-111 -8 -164.5 -46t-53.5 -111q0 -70 55.5 -112.5t146.5 -42.5zM990 -428q-52 -19 -117 -19q-112 0 -183 59.5t-71 153.5q0 77 51.5 142t130.5 96v149h-17q-49 -82 -134.5 -126.5t-192.5 -44.5q-162 0 -262.5 90
t-100.5 236t104.5 229.5t300.5 95.5l295 17v94q0 87 -57 133.5t-166 46.5q-91 0 -150 -31.5t-77 -89.5h-208q17 140 138 223.5t307 83.5q203 0 315 -96t112 -270v-744l-21 -6q-81 -28 -130 -77.5t-49 -106.5q0 -43 31.5 -70t83.5 -27q47 0 67 7v-148z" />
    <glyph glyph-name="Cacute" unicode="&#x106;" horiz-adv-x="1485" 
d="M884 1584h-230l297 306h258zM773 -35q-301 0 -476 203t-175 553q0 351 174.5 554t475.5 203q238 0 405.5 -139.5t194.5 -360.5h-223q-32 133 -133.5 212t-243.5 79q-194 0 -307.5 -147.5t-113.5 -400.5q0 -252 113.5 -399.5t308.5 -147.5q143 0 244.5 72t131.5 194h223
q-30 -214 -194 -344.5t-405 -130.5z" />
    <glyph glyph-name="cacute" unicode="&#x107;" horiz-adv-x="1167" 
d="M1078 733h-209q-20 83 -86.5 134t-170.5 51q-135 0 -212.5 -98t-77.5 -272q0 -176 77.5 -276.5t212.5 -100.5q103 0 169.5 46t87.5 133h209q-21 -168 -144 -269.5t-321 -101.5q-238 0 -374.5 151.5t-136.5 417.5q0 262 136 412t374 150q199 0 321.5 -104t144.5 -273z
M704 1271h-222l251 344h252z" />
    <glyph glyph-name="Ccircumflex" unicode="&#x108;" horiz-adv-x="1485" 
d="M773 -35q-301 0 -476 203t-175 553q0 351 174.5 554t475.5 203q238 0 405.5 -139.5t194.5 -360.5h-223q-32 133 -133.5 212t-243.5 79q-194 0 -307.5 -147.5t-113.5 -400.5q0 -252 113.5 -399.5t308.5 -147.5q143 0 244.5 72t131.5 194h223q-30 -214 -194 -344.5
t-405 -130.5zM671 1898h202l295 -314h-225l-163 181h-16l-163 -181h-225z" />
    <glyph glyph-name="ccircumflex" unicode="&#x109;" horiz-adv-x="1167" 
d="M728 1584l279 -346h-221l-167 219h-16l-167 -219h-222l280 346h234zM1078 733h-209q-20 83 -86.5 134t-170.5 51q-135 0 -212.5 -98t-77.5 -272q0 -176 77.5 -276.5t212.5 -100.5q103 0 169.5 46t87.5 133h209q-21 -168 -144 -269.5t-321 -101.5q-238 0 -374.5 151.5
t-136.5 417.5q0 262 136 412t374 150q199 0 321.5 -104t144.5 -273z" />
    <glyph glyph-name="Cdotaccent" unicode="&#x10a;" horiz-adv-x="1485" 
d="M772 1579q-57 0 -95.5 39.5t-38.5 97.5t38.5 97.5t95.5 39.5t95.5 -39.5t38.5 -97.5t-38.5 -97.5t-95.5 -39.5zM773 -35q-301 0 -476 203t-175 553q0 351 174.5 554t475.5 203q238 0 405.5 -139.5t194.5 -360.5h-223q-32 133 -133.5 212t-243.5 79q-194 0 -307.5 -147.5
t-113.5 -400.5q0 -252 113.5 -399.5t308.5 -147.5q143 0 244.5 72t131.5 194h223q-30 -214 -194 -344.5t-405 -130.5z" />
    <glyph glyph-name="cdotaccent" unicode="&#x10b;" horiz-adv-x="1167" 
d="M1078 733h-209q-20 83 -86.5 134t-170.5 51q-135 0 -212.5 -98t-77.5 -272q0 -176 77.5 -276.5t212.5 -100.5q103 0 169.5 46t87.5 133h209q-21 -168 -144 -269.5t-321 -101.5q-238 0 -374.5 151.5t-136.5 417.5q0 262 136 412t374 150q199 0 321.5 -104t144.5 -273z
M611 1283q-59 0 -99.5 41.5t-40.5 100.5t40.5 100.5t99.5 41.5q58 0 99 -41.5t41 -100.5t-41 -100.5t-99 -41.5z" />
    <glyph glyph-name="Ccaron" unicode="&#x10c;" horiz-adv-x="1485" 
d="M773 -35q-301 0 -476 203t-175 553q0 351 174.5 554t475.5 203q238 0 405.5 -139.5t194.5 -360.5h-223q-32 133 -133.5 212t-243.5 79q-194 0 -307.5 -147.5t-113.5 -400.5q0 -252 113.5 -399.5t308.5 -147.5q143 0 244.5 72t131.5 194h223q-30 -214 -194 -344.5
t-405 -130.5zM674 1584l-293 306h220l162 -175h18l162 175h220l-293 -306h-196z" />
    <glyph glyph-name="ccaron" unicode="&#x10d;" horiz-adv-x="1167" 
d="M728 1238h-234l-280 346h222l167 -219h16l167 219h221zM1078 733h-209q-20 83 -86.5 134t-170.5 51q-135 0 -212.5 -98t-77.5 -272q0 -176 77.5 -276.5t212.5 -100.5q103 0 169.5 46t87.5 133h209q-21 -168 -144 -269.5t-321 -101.5q-238 0 -374.5 151.5t-136.5 417.5
q0 262 136 412t374 150q199 0 321.5 -104t144.5 -273z" />
    <glyph glyph-name="Dcaron" unicode="&#x10e;" horiz-adv-x="1502" 
d="M512 1582l-293 306h220l162 -175h18l162 175h220l-293 -306h-196zM181 1443h521q321 0 500 -188.5t179 -528.5q0 -346 -178 -536t-501 -190h-521v1443zM405 1239v-1035h272q227 0 351.5 135.5t124.5 383.5q0 244 -125.5 380t-350.5 136h-272z" />
    <glyph glyph-name="dcaron" unicode="&#x10f;" horiz-adv-x="1440" 
d="M1265 1514h199l-50 -496h-149v496zM554 -18q-208 0 -330 152t-122 411q0 258 122.5 410t329.5 152q112 0 201 -50.5t133 -140.5h16v598h215v-1514h-206v172h-17q-49 -89 -139.5 -139.5t-202.5 -50.5zM615 914q-136 0 -213.5 -98.5t-77.5 -270.5q0 -173 77.5 -271.5
t213.5 -98.5t214.5 99t78.5 270q0 170 -79 270t-214 100z" />
    <glyph glyph-name="Dcroat" unicode="&#x110;" horiz-adv-x="1507" 
d="M409 204h272q227 0 351.5 135.5t124.5 383.5q0 244 -125.5 380t-350.5 136h-272v-405h236v-191h-236v-439zM185 1443h521q321 0 500 -188.5t179 -528.5q0 -346 -178 -536t-501 -190h-521v643h-150v191h150v609z" />
    <glyph glyph-name="dcroat" unicode="&#x111;" horiz-adv-x="1290" 
d="M619 175q136 0 214.5 99t78.5 270t-78.5 270.5t-214.5 99.5t-213.5 -98.5t-77.5 -270.5q0 -173 77.5 -271.5t213.5 -98.5zM1267 1404v-137h-144v-1267h-206v172h-17q-49 -89 -139.5 -139.5t-202.5 -50.5q-208 0 -330 152t-122 411q0 258 122.5 410t329.5 152
q113 0 201.5 -50.5t133.5 -140.5h16v351h-251v137h251v110h214v-110h144z" />
    <glyph glyph-name="Emacron" unicode="&#x112;" horiz-adv-x="1239" 
d="M1097 204v-204h-916v1443h916v-204h-692v-408h655v-194h-655v-433h692zM989 1781v-156h-700v156h700z" />
    <glyph glyph-name="emacron" unicode="&#x113;" horiz-adv-x="1192" 
d="M603 927q-119 0 -196 -77t-86 -205h550q-4 129 -76.5 205.5t-191.5 76.5zM870 294h207q-37 -147 -161.5 -231t-310.5 -84q-234 0 -368.5 150.5t-134.5 411.5t136 415t366 154q227 0 356.5 -146t129.5 -403v-75h-769v-12q5 -144 83 -228t207 -84q197 0 259 132zM952 1454
v-155h-696v155h696z" />
    <glyph glyph-name="Ebreve" unicode="&#x114;" horiz-adv-x="1239" 
d="M1097 204v-204h-916v1443h916v-204h-692v-408h655v-194h-655v-433h692zM262 1891h173q1 -78 56 -123.5t148 -45.5t148 45.5t56 123.5h173q0 -142 -101.5 -228t-275.5 -86t-275.5 86t-101.5 228z" />
    <glyph glyph-name="ebreve" unicode="&#x115;" horiz-adv-x="1192" 
d="M603 927q-119 0 -196 -77t-86 -205h550q-4 129 -76.5 205.5t-191.5 76.5zM870 294h207q-37 -147 -161.5 -231t-310.5 -84q-234 0 -368.5 150.5t-134.5 411.5t136 415t366 154q227 0 356.5 -146t129.5 -403v-75h-769v-12q5 -144 83 -228t207 -84q197 0 259 132zM225 1576
h173q1 -85 55 -137.5t149 -52.5t149 52.5t55 137.5h173q0 -150 -102 -244t-275 -94t-275 94t-102 244z" />
    <glyph glyph-name="Edotaccent" unicode="&#x116;" horiz-adv-x="1239" 
d="M639 1577q-57 0 -95.5 39.5t-38.5 97.5t38.5 97.5t95.5 39.5t95.5 -39.5t38.5 -97.5t-38.5 -97.5t-95.5 -39.5zM1097 204v-204h-916v1443h916v-204h-692v-408h655v-194h-655v-433h692z" />
    <glyph glyph-name="edotaccent" unicode="&#x117;" horiz-adv-x="1192" 
d="M604 1283q-59 0 -99.5 41.5t-40.5 100.5t40.5 100.5t99.5 41.5q58 0 99 -41.5t41 -100.5t-41 -100.5t-99 -41.5zM603 927q-119 0 -196 -77t-86 -205h550q-4 129 -76.5 205.5t-191.5 76.5zM870 294h207q-37 -147 -161.5 -231t-310.5 -84q-234 0 -368.5 150.5t-134.5 411.5
t136 415t366 154q227 0 356.5 -146t129.5 -403v-75h-769v-12q5 -144 83 -228t207 -84q197 0 259 132z" />
    <glyph glyph-name="Eogonek" unicode="&#x118;" horiz-adv-x="1239" 
d="M181 0v1443h916v-204h-692v-408h655v-194h-655v-433h692v-195l-43 -14q-78 -26 -132.5 -74.5t-54.5 -110.5q0 -45 32.5 -71t81.5 -26q48 0 67 7v-148q-49 -19 -116 -19q-114 0 -184.5 60.5t-70.5 152.5q0 67 39 124.5t103 92.5v17h-638z" />
    <glyph glyph-name="eogonek" unicode="&#x119;" horiz-adv-x="1192" 
d="M808 -447q-114 0 -184 60.5t-70 152.5q0 60 34 114.5t97 93.5v17q-26 -12 -80 -12q-234 0 -368.5 150.5t-134.5 411.5t136 415t366 154q227 0 356.5 -146t129.5 -403v-75h-769v-12q5 -144 83 -228t207 -84q197 0 259 132h207q-12 -57 -58.5 -128.5t-110.5 -123.5
q-85 -69 -125 -122.5t-40 -107.5q0 -47 32.5 -73t81.5 -26q48 0 67 7v-148q-49 -19 -116 -19zM603 927q-119 0 -196 -77t-86 -205h550q-4 129 -76.5 205.5t-191.5 76.5z" />
    <glyph glyph-name="Ecaron" unicode="&#x11a;" horiz-adv-x="1239" 
d="M541 1582l-293 306h220l162 -175h18l162 175h220l-293 -306h-196zM1097 204v-204h-916v1443h916v-204h-692v-408h655v-194h-655v-433h692z" />
    <glyph glyph-name="ecaron" unicode="&#x11b;" horiz-adv-x="1192" 
d="M721 1238h-234l-280 346h222l167 -219h16l167 219h221zM603 927q-119 0 -196 -77t-86 -205h550q-4 129 -76.5 205.5t-191.5 76.5zM870 294h207q-37 -147 -161.5 -231t-310.5 -84q-234 0 -368.5 150.5t-134.5 411.5t136 415t366 154q227 0 356.5 -146t129.5 -403v-75h-769
v-12q5 -144 83 -228t207 -84q197 0 259 132z" />
    <glyph glyph-name="Gcircumflex" unicode="&#x11c;" horiz-adv-x="1539" 
d="M686 1896h202l295 -314h-225l-163 181h-16l-163 -181h-225zM1412 571q0 -277 -169.5 -441.5t-453.5 -164.5q-307 0 -487 204t-180 553q0 345 181 550.5t484 205.5q246 0 412 -129.5t203 -348.5h-225q-42 131 -142 200t-248 69q-200 0 -318 -147.5t-118 -397.5
q0 -255 118.5 -402.5t322.5 -147.5q177 0 288 99t112 259v31h-372v188h592v-180z" />
    <glyph glyph-name="gcircumflex" unicode="&#x11d;" horiz-adv-x="1274" 
d="M729 1584l279 -346h-221l-167 219h-16l-167 -219h-222l280 346h234zM612 202q137 0 216 96t79 260q0 163 -79 259.5t-216 96.5t-213 -95.5t-76 -260.5t76 -260.5t213 -95.5zM615 -416q-202 0 -328 83.5t-143 223.5h220q14 -60 80.5 -95t173.5 -35q134 0 209.5 60.5
t75.5 168.5v209h-16q-49 -88 -136 -135.5t-200 -47.5q-207 0 -328.5 147.5t-121.5 393.5q0 250 122 400t330 150q112 0 204 -51.5t138 -140.5h17v174h206v-1098q0 -187 -136 -297t-367 -110z" />
    <glyph glyph-name="Gbreve" unicode="&#x11e;" horiz-adv-x="1539" 
d="M1412 571q0 -277 -169.5 -441.5t-453.5 -164.5q-307 0 -487 204t-180 553q0 345 181 550.5t484 205.5q246 0 412 -129.5t203 -348.5h-225q-42 131 -142 200t-248 69q-200 0 -318 -147.5t-118 -397.5q0 -255 118.5 -402.5t322.5 -147.5q177 0 288 99t112 259v31h-372v188
h592v-180zM410 1891h173q1 -78 56 -123.5t148 -45.5t148 45.5t56 123.5h173q0 -142 -101.5 -228t-275.5 -86t-275.5 86t-101.5 228z" />
    <glyph glyph-name="gbreve" unicode="&#x11f;" horiz-adv-x="1274" 
d="M233 1576h173q1 -85 55 -137.5t149 -52.5t149 52.5t55 137.5h173q0 -150 -102 -244t-275 -94t-275 94t-102 244zM612 202q137 0 216 96t79 260q0 163 -79 259.5t-216 96.5t-213 -95.5t-76 -260.5t76 -260.5t213 -95.5zM615 -416q-202 0 -328 83.5t-143 223.5h220
q14 -60 80.5 -95t173.5 -35q134 0 209.5 60.5t75.5 168.5v209h-16q-49 -88 -136 -135.5t-200 -47.5q-207 0 -328.5 147.5t-121.5 393.5q0 250 122 400t330 150q112 0 204 -51.5t138 -140.5h17v174h206v-1098q0 -187 -136 -297t-367 -110z" />
    <glyph glyph-name="Gdotaccent" unicode="&#x120;" horiz-adv-x="1539" 
d="M787 1577q-57 0 -95.5 39.5t-38.5 97.5t38.5 97.5t95.5 39.5t95.5 -39.5t38.5 -97.5t-38.5 -97.5t-95.5 -39.5zM1412 571q0 -277 -169.5 -441.5t-453.5 -164.5q-307 0 -487 204t-180 553q0 345 181 550.5t484 205.5q246 0 412 -129.5t203 -348.5h-225q-42 131 -142 200
t-248 69q-200 0 -318 -147.5t-118 -397.5q0 -255 118.5 -402.5t322.5 -147.5q177 0 288 99t112 259v31h-372v188h592v-180z" />
    <glyph glyph-name="gdotaccent" unicode="&#x121;" horiz-adv-x="1274" 
d="M612 1283q-59 0 -99.5 41.5t-40.5 100.5t40.5 100.5t99.5 41.5q58 0 99 -41.5t41 -100.5t-41 -100.5t-99 -41.5zM612 202q137 0 216 96t79 260q0 163 -79 259.5t-216 96.5t-213 -95.5t-76 -260.5t76 -260.5t213 -95.5zM615 -416q-202 0 -328 83.5t-143 223.5h220
q14 -60 80.5 -95t173.5 -35q134 0 209.5 60.5t75.5 168.5v209h-16q-49 -88 -136 -135.5t-200 -47.5q-207 0 -328.5 147.5t-121.5 393.5q0 250 122 400t330 150q112 0 204 -51.5t138 -140.5h17v174h206v-1098q0 -187 -136 -297t-367 -110z" />
    <glyph glyph-name="Gcommaaccent" unicode="&#x122;" horiz-adv-x="1539" 
d="M793 -514h-200l113 368h222zM1412 571q0 -277 -169.5 -441.5t-453.5 -164.5q-307 0 -487 204t-180 553q0 345 181 550.5t484 205.5q246 0 412 -129.5t203 -348.5h-225q-42 131 -142 200t-248 69q-200 0 -318 -147.5t-118 -397.5q0 -255 118.5 -402.5t322.5 -147.5
q177 0 288 99t112 259v31h-372v188h592v-180z" />
    <glyph glyph-name="gcommaaccent" unicode="&#x123;" horiz-adv-x="1274" 
d="M627 1657h200l-113 -368h-222zM612 202q137 0 216 96t79 260q0 163 -79 259.5t-216 96.5t-213 -95.5t-76 -260.5t76 -260.5t213 -95.5zM615 -416q-202 0 -328 83.5t-143 223.5h220q14 -60 80.5 -95t173.5 -35q134 0 209.5 60.5t75.5 168.5v209h-16q-49 -88 -136 -135.5
t-200 -47.5q-207 0 -328.5 147.5t-121.5 393.5q0 250 122 400t330 150q112 0 204 -51.5t138 -140.5h17v174h206v-1098q0 -187 -136 -297t-367 -110z" />
    <glyph glyph-name="Hcircumflex" unicode="&#x124;" horiz-adv-x="1550" 
d="M1369 0h-223v633h-741v-633h-224v1443h224v-606h741v606h223v-1443zM674 1896h202l295 -314h-225l-163 181h-16l-163 -181h-225z" />
    <glyph glyph-name="hcircumflex" unicode="&#x125;" horiz-adv-x="1249" 
d="M166 0v1514h213v-600h17q40 93 125.5 144t206.5 51q175 0 275 -106.5t100 -299.5v-703h-215v650q0 130 -59 196t-174 66q-130 0 -202 -75t-72 -201v-636h-215zM172 1967h202l295 -314h-225l-163 181h-16l-163 -181h-225z" />
    <glyph glyph-name="Hbar" unicode="&#x126;" horiz-adv-x="1550" 
d="M1146 837v229h-741v-229h741zM1503 1237v-171h-134v-1066h-223v633h-741v-633h-224v1066h-133v171h133v206h224v-206h741v206h223v-206h134z" />
    <glyph glyph-name="hbar" unicode="&#x127;" horiz-adv-x="1249" 
d="M379 914h17q40 93 125.5 144t206.5 51q175 0 275 -106.5t100 -299.5v-703h-215v650q0 130 -59 196t-174 66q-130 0 -202 -75t-72 -201v-636h-215v1267h-144v137h144v110h213v-110h251v-137h-251v-353z" />
    <glyph glyph-name="Itilde" unicode="&#x128;" horiz-adv-x="585" 
d="M405 0h-224v1443h224v-1443zM439 1577q-44 0 -81.5 15.5t-63.5 37.5t-48 44.5t-45 38t-44 15.5q-49 0 -71.5 -36t-22.5 -114h-158q0 140 65 222t177 82q44 0 81.5 -15.5t63.5 -38t48 -44.5t45 -37.5t44 -15.5q49 0 71.5 35t22.5 113h158q0 -140 -65 -221t-177 -81z" />
    <glyph glyph-name="itilde" unicode="&#x129;" horiz-adv-x="534" 
d="M160 0v1089h214v-1089h-214zM415 1241q-44 0 -81.5 15.5t-63.5 37.5t-48 44.5t-45 38t-44 15.5q-49 0 -71.5 -36t-22.5 -114h-158q0 140 65 222t177 82q44 0 81.5 -15.5t63.5 -38t48 -44.5t45 -37.5t44 -15.5q49 0 71.5 35t22.5 113h158q0 -140 -65 -221t-177 -81z" />
    <glyph glyph-name="Imacron" unicode="&#x12a;" horiz-adv-x="585" 
d="M405 0h-224v1443h224v-1443zM643 1781v-156h-700v156h700z" />
    <glyph glyph-name="imacron" unicode="&#x12b;" horiz-adv-x="534" 
d="M160 0v1089h214v-1089h-214zM615 1454v-155h-696v155h696z" />
    <glyph glyph-name="Ibreve" unicode="&#x12c;" horiz-adv-x="585" 
d="M405 0h-224v1443h224v-1443zM-84 1891h173q1 -78 56 -123.5t148 -45.5t148 45.5t56 123.5h173q0 -142 -101.5 -228t-275.5 -86t-275.5 86t-101.5 228z" />
    <glyph glyph-name="ibreve" unicode="&#x12d;" horiz-adv-x="534" 
d="M160 0v1089h214v-1089h-214zM-112 1576h173q1 -85 55 -137.5t149 -52.5t149 52.5t55 137.5h173q0 -150 -102 -244t-275 -94t-275 94t-102 244z" />
    <glyph glyph-name="Iogonek" unicode="&#x12e;" horiz-adv-x="585" 
d="M181 -14v1457h224v-1443l-12 -4q-155 -78 -155 -184q0 -44 32 -71.5t84 -27.5q45 0 67 7v-148q-49 -19 -118 -19q-112 0 -183 59.5t-71 153.5q0 67 34.5 124t97.5 96z" />
    <glyph glyph-name="iogonek" unicode="&#x12f;" horiz-adv-x="534" 
d="M267 1280q-60 0 -99.5 37.5t-39.5 93.5t39.5 94t99.5 38t99.5 -38t39.5 -94t-39.5 -93.5t-99.5 -37.5zM160 -7v1096h214v-1089l-15 -4q-151 -75 -151 -184q0 -46 33.5 -72.5t82.5 -26.5q37 0 67 6v-147q-49 -19 -116 -19q-116 0 -186.5 61t-70.5 154q0 67 36.5 125.5
t105.5 99.5z" />
    <glyph glyph-name="Idotaccent" unicode="&#x130;" horiz-adv-x="585" 
d="M405 0h-224v1443h224v-1443zM293 1577q-57 0 -95.5 39.5t-38.5 97.5t38.5 97.5t95.5 39.5t95.5 -39.5t38.5 -97.5t-38.5 -97.5t-95.5 -39.5z" />
    <glyph glyph-name="dotlessi" unicode="&#x131;" horiz-adv-x="534" 
d="M160 0v1089h214v-1089h-214z" />
    <glyph glyph-name="IJ" unicode="&#x132;" horiz-adv-x="1734" 
d="M405 0h-224v1443h224v-1443zM667 375h220q2 -89 62 -144t156 -55q108 0 166 63.5t58 183.5v1020h224v-1021q0 -217 -118.5 -337t-327.5 -120q-197 0 -318.5 112.5t-121.5 297.5z" />
    <glyph glyph-name="ij" unicode="&#x133;" horiz-adv-x="1090" 
d="M160 0v1089h214v-1089h-214zM267 1280q-60 0 -99.5 37.5t-39.5 93.5t39.5 94t99.5 38t99.5 -38t39.5 -94t-39.5 -93.5t-99.5 -37.5zM919 1089v-1134q0 -167 -86.5 -247t-264.5 -80q-43 0 -48 1v180h30q85 0 120 34t35 114v1132h214zM812 1280q-60 0 -99.5 37.5
t-39.5 93.5t39.5 94t99.5 38t99.5 -38t39.5 -94t-39.5 -93.5t-99.5 -37.5z" />
    <glyph glyph-name="Jcircumflex" unicode="&#x134;" horiz-adv-x="1148" 
d="M82 375h220q2 -89 62 -144t156 -55q108 0 166 63.5t58 183.5v1020h224v-1021q0 -217 -118.5 -337t-327.5 -120q-197 0 -318.5 112.5t-121.5 297.5zM755 1896h202l295 -314h-225l-163 181h-16l-163 -181h-225z" />
    <glyph glyph-name="jcircumflex" unicode="&#x135;" horiz-adv-x="534" 
d="M369 1089v-1134q0 -167 -86.5 -247t-264.5 -80q-43 0 -48 1v180h30q85 0 120 34t35 114v1132h214zM386 1584l279 -346h-221l-167 219h-16l-167 -219h-222l280 346h234z" />
    <glyph glyph-name="Kcommaaccent" unicode="&#x136;" horiz-adv-x="1386" 
d="M405 0h-224v1443h224v-676h16l597 676h265l-558 -627l606 -816h-280l-484 655l-162 -181v-474zM670 -514h-200l113 368h222z" />
    <glyph glyph-name="kcommaaccent" unicode="&#x137;" horiz-adv-x="1155" 
d="M398 635l432 454h254l-448 -467l478 -622h-264l-374 480l-95 -90v-390h-215v1514h215v-879h17zM620 -514h-200l113 368h222z" />
    <glyph glyph-name="Lacute" unicode="&#x139;" horiz-adv-x="1183" 
d="M405 1582h-230l297 306h258zM1081 206v-206h-900v1443h224v-1237h676z" />
    <glyph glyph-name="lacute" unicode="&#x13a;" horiz-adv-x="547" 
d="M386 1653h-230l297 306h258zM166 0v1514h215v-1514h-215z" />
    <glyph glyph-name="Lcommaaccent" unicode="&#x13b;" horiz-adv-x="1183" 
d="M629 -514h-200l113 368h222zM1081 206v-206h-900v1443h224v-1237h676z" />
    <glyph glyph-name="lcommaaccent" unicode="&#x13c;" horiz-adv-x="547" 
d="M274 -514h-200l113 368h222zM166 0v1514h215v-1514h-215z" />
    <glyph glyph-name="Lcaron" unicode="&#x13d;" horiz-adv-x="1183" 
d="M620 1443h197l-50 -495h-147v495zM1081 206v-206h-900v1443h224v-1237h676z" />
    <glyph glyph-name="lcaron" unicode="&#x13e;" horiz-adv-x="702" 
d="M527 1514h199l-50 -496h-149v496zM166 0v1514h215v-1514h-215z" />
    <glyph glyph-name="Lslash" unicode="&#x141;" horiz-adv-x="1183" 
d="M405 206h676v-206h-900v695l-161 -78v170l161 78v578h224v-469l272 132v-171l-272 -132v-597z" />
    <glyph glyph-name="lslash" unicode="&#x142;" horiz-adv-x="547" 
d="M508 1038v-170l-127 -65v-803h-215v692l-126 -65v170l126 65v652h215v-541z" />
    <glyph glyph-name="Nacute" unicode="&#x143;" horiz-adv-x="1539" 
d="M880 1582h-230l297 306h258zM399 0h-218v1443h202l741 -1025h16v1025h218v-1443h-202l-741 1025h-16v-1025z" />
    <glyph glyph-name="nacute" unicode="&#x144;" horiz-adv-x="1227" 
d="M715 1271h-222l251 344h252zM156 0v1089h207v-173h16q85 194 325 194q182 0 279.5 -105t97.5 -300v-705h-215v651q0 262 -235 262q-119 0 -189.5 -74.5t-70.5 -201.5v-637h-215z" />
    <glyph glyph-name="Ncommaaccent" unicode="&#x145;" horiz-adv-x="1539" 
d="M768 -514h-200l113 368h222zM399 0h-218v1443h202l741 -1025h16v1025h218v-1443h-202l-741 1025h-16v-1025z" />
    <glyph glyph-name="ncommaaccent" unicode="&#x146;" horiz-adv-x="1227" 
d="M622 -514h-200l113 368h222zM156 0v1089h207v-173h16q85 194 325 194q182 0 279.5 -105t97.5 -300v-705h-215v651q0 262 -235 262q-119 0 -189.5 -74.5t-70.5 -201.5v-637h-215z" />
    <glyph glyph-name="Ncaron" unicode="&#x147;" horiz-adv-x="1539" 
d="M670 1582l-293 306h220l162 -175h18l162 175h220l-293 -306h-196zM399 0h-218v1443h202l741 -1025h16v1025h218v-1443h-202l-741 1025h-16v-1025z" />
    <glyph glyph-name="ncaron" unicode="&#x148;" horiz-adv-x="1227" 
d="M739 1238h-234l-280 346h222l167 -219h16l167 219h221zM156 0v1089h207v-173h16q85 194 325 194q182 0 279.5 -105t97.5 -300v-705h-215v651q0 262 -235 262q-119 0 -189.5 -74.5t-70.5 -201.5v-637h-215z" />
    <glyph glyph-name="Omacron" unicode="&#x14c;" horiz-adv-x="1590" 
d="M796 1478q312 0 492 -203.5t180 -552.5t-180 -553t-492 -204q-313 0 -493.5 203.5t-180.5 553.5q0 349 181.5 552.5t492.5 203.5zM796 1269q-204 0 -324.5 -148t-120.5 -399t119 -399.5t326 -148.5q205 0 324 148.5t119 399.5q0 252 -119 399.5t-324 147.5zM1146 1781
v-156h-700v156h700z" />
    <glyph glyph-name="omacron" unicode="&#x14d;" horiz-adv-x="1231" 
d="M964 1454v-155h-696v155h696zM616 -21q-240 0 -377 151t-137 415q0 263 137.5 414t376.5 151q238 0 375.5 -151t137.5 -414q0 -264 -137 -415t-376 -151zM616 170q139 0 215.5 98.5t76.5 276.5q0 177 -76.5 275.5t-215.5 98.5q-140 0 -216 -98t-76 -276q0 -179 76 -277
t216 -98z" />
    <glyph glyph-name="Obreve" unicode="&#x14e;" horiz-adv-x="1590" 
d="M796 1478q312 0 492 -203.5t180 -552.5t-180 -553t-492 -204q-313 0 -493.5 203.5t-180.5 553.5q0 349 181.5 552.5t492.5 203.5zM796 1269q-204 0 -324.5 -148t-120.5 -399t119 -399.5t326 -148.5q205 0 324 148.5t119 399.5q0 252 -119 399.5t-324 147.5zM419 1891h173
q1 -78 56 -123.5t148 -45.5t148 45.5t56 123.5h173q0 -142 -101.5 -228t-275.5 -86t-275.5 86t-101.5 228z" />
    <glyph glyph-name="obreve" unicode="&#x14f;" horiz-adv-x="1231" 
d="M237 1576h173q1 -85 55 -137.5t149 -52.5t149 52.5t55 137.5h173q0 -150 -102 -244t-275 -94t-275 94t-102 244zM616 -21q-240 0 -377 151t-137 415q0 263 137.5 414t376.5 151q238 0 375.5 -151t137.5 -414q0 -264 -137 -415t-376 -151zM616 170q139 0 215.5 98.5
t76.5 276.5q0 177 -76.5 275.5t-215.5 98.5q-140 0 -216 -98t-76 -276q0 -179 76 -277t216 -98z" />
    <glyph glyph-name="Ohungarumlaut" unicode="&#x150;" horiz-adv-x="1590" 
d="M1071 1582h-218l289 306h242zM649 1582h-218l288 306h242zM796 1478q312 0 492 -203.5t180 -552.5t-180 -553t-492 -204q-313 0 -493.5 203.5t-180.5 553.5q0 349 181.5 552.5t492.5 203.5zM796 1269q-204 0 -324.5 -148t-120.5 -399t119 -399.5t326 -148.5
q205 0 324 148.5t119 399.5q0 252 -119 399.5t-324 147.5z" />
    <glyph glyph-name="ohungarumlaut" unicode="&#x151;" horiz-adv-x="1231" 
d="M685 1271l238 344h228l-267 -344h-199zM272 1271l238 344h228l-267 -344h-199zM616 -21q-240 0 -377 151t-137 415q0 263 137.5 414t376.5 151q238 0 375.5 -151t137.5 -414q0 -264 -137 -415t-376 -151zM616 170q139 0 215.5 98.5t76.5 276.5q0 177 -76.5 275.5
t-215.5 98.5q-140 0 -216 -98t-76 -276q0 -179 76 -277t216 -98z" />
    <glyph glyph-name="OE" unicode="&#x152;" horiz-adv-x="2306" 
d="M808 1269q-209 0 -331 -147t-122 -400q0 -254 121.5 -401t331.5 -147q202 0 319 147t117 401t-117 400.5t-319 146.5zM1276 0v241h-16q-62 -124 -195 -200t-288 -76q-303 0 -477.5 202.5t-174.5 554.5q0 351 175 553.5t477 202.5q152 0 287 -74.5t196 -192.5h16v232h902
v-204h-707v-408h670v-194h-670v-433h707v-204h-902z" />
    <glyph glyph-name="oe" unicode="&#x153;" horiz-adv-x="1998" 
d="M1417 -21q-133 0 -239 57t-152 153h-17q-47 -96 -154 -153t-242 -57q-236 0 -372.5 151.5t-136.5 413.5q0 263 136 414.5t373 151.5q133 0 237 -56t160 -158h17q55 101 157.5 157.5t231.5 56.5q221 0 350.5 -147.5t129.5 -400.5v-76h-768v-11q5 -144 83 -228t206 -84
q198 0 259 131h207q-37 -147 -161.5 -231t-304.5 -84zM1677 646q-3 128 -76 205t-191 77q-119 0 -196 -77t-86 -205h549zM325 544q0 -178 76.5 -276t215.5 -98t215.5 98t76.5 276q0 179 -76.5 277t-215.5 98t-215.5 -98.5t-76.5 -276.5z" />
    <glyph glyph-name="Racute" unicode="&#x154;" horiz-adv-x="1368" 
d="M736 1582h-230l297 306h258zM405 1246v-505h322q130 0 201.5 66t71.5 187q0 118 -74.5 185t-204.5 67h-316zM405 550v-550h-224v1443h571q218 0 348 -120.5t130 -323.5q0 -146 -74.5 -256.5t-205.5 -155.5l324 -587h-259l-294 550h-316z" />
    <glyph glyph-name="racute" unicode="&#x155;" horiz-adv-x="820" 
d="M496 1271h-222l251 344h252zM156 0v1089h207v-167h16q23 81 105.5 133t188.5 52q61 0 96 -9v-212q-39 13 -120 13q-123 0 -200.5 -71t-77.5 -185v-643h-215z" />
    <glyph glyph-name="Rcommaaccent" unicode="&#x156;" horiz-adv-x="1368" 
d="M405 1246v-505h322q130 0 201.5 66t71.5 187q0 118 -74.5 185t-204.5 67h-316zM405 550v-550h-224v1443h571q218 0 348 -120.5t130 -323.5q0 -146 -74.5 -256.5t-205.5 -155.5l324 -587h-259l-294 550h-316zM624 -514h-200l113 368h222z" />
    <glyph glyph-name="rcommaaccent" unicode="&#x157;" horiz-adv-x="820" 
d="M156 0v1089h207v-167h16q23 81 105.5 133t188.5 52q61 0 96 -9v-212q-39 13 -120 13q-123 0 -200.5 -71t-77.5 -185v-643h-215zM263 -514h-200l113 368h222z" />
    <glyph glyph-name="Rcaron" unicode="&#x158;" horiz-adv-x="1368" 
d="M405 1246v-505h322q130 0 201.5 66t71.5 187q0 118 -74.5 185t-204.5 67h-316zM405 550v-550h-224v1443h571q218 0 348 -120.5t130 -323.5q0 -146 -74.5 -256.5t-205.5 -155.5l324 -587h-259l-294 550h-316zM526 1582l-293 306h220l162 -175h18l162 175h220l-293 -306
h-196z" />
    <glyph glyph-name="rcaron" unicode="&#x159;" horiz-adv-x="820" 
d="M520 1238h-234l-280 346h222l167 -219h16l167 219h221zM156 0v1089h207v-167h16q23 81 105.5 133t188.5 52q61 0 96 -9v-212q-39 13 -120 13q-123 0 -200.5 -71t-77.5 -185v-643h-215z" />
    <glyph glyph-name="Sacute" unicode="&#x15a;" horiz-adv-x="1333" 
d="M789 1582h-230l297 306h258zM113 388h222q14 -103 107.5 -163.5t238.5 -60.5q135 0 223.5 62.5t88.5 158.5q0 82 -65.5 134.5t-209.5 86.5l-186 45q-196 46 -288 143t-92 256q0 193 144.5 310.5t380.5 117.5q220 0 365 -116t155 -298h-218q-16 100 -97.5 158t-207.5 58
q-133 0 -214 -59t-81 -156q0 -77 61.5 -125t202.5 -81l159 -39q222 -52 320 -147.5t98 -258.5q0 -207 -150 -328t-406 -121q-240 0 -389.5 115t-161.5 308z" />
    <glyph glyph-name="sacute" unicode="&#x15b;" horiz-adv-x="1104" 
d="M131 781q0 144 119 236.5t304 92.5q184 0 297 -81t129 -225h-206q-15 61 -72.5 96t-147.5 35q-91 0 -151 -39.5t-60 -102.5q0 -49 42 -81t131 -52l181 -42q157 -36 230.5 -107t73.5 -190q0 -152 -127 -247t-324 -95q-194 0 -313.5 82.5t-133.5 227.5h215q21 -64 81 -100
t156 -36q101 0 165 41t64 106q0 95 -160 133l-190 44q-156 37 -229.5 110t-73.5 194zM647 1271h-222l251 344h252z" />
    <glyph glyph-name="Scircumflex" unicode="&#x15c;" horiz-adv-x="1333" 
d="M113 388h222q14 -103 107.5 -163.5t238.5 -60.5q135 0 223.5 62.5t88.5 158.5q0 82 -65.5 134.5t-209.5 86.5l-186 45q-196 46 -288 143t-92 256q0 193 144.5 310.5t380.5 117.5q220 0 365 -116t155 -298h-218q-16 100 -97.5 158t-207.5 58q-133 0 -214 -59t-81 -156
q0 -77 61.5 -125t202.5 -81l159 -39q222 -52 320 -147.5t98 -258.5q0 -207 -150 -328t-406 -121q-240 0 -389.5 115t-161.5 308zM576 1896h202l295 -314h-225l-163 181h-16l-163 -181h-225z" />
    <glyph glyph-name="scircumflex" unicode="&#x15d;" horiz-adv-x="1104" 
d="M671 1584l279 -346h-221l-167 219h-16l-167 -219h-222l280 346h234zM131 781q0 144 119 236.5t304 92.5q184 0 297 -81t129 -225h-206q-15 61 -72.5 96t-147.5 35q-91 0 -151 -39.5t-60 -102.5q0 -49 42 -81t131 -52l181 -42q157 -36 230.5 -107t73.5 -190
q0 -152 -127 -247t-324 -95q-194 0 -313.5 82.5t-133.5 227.5h215q21 -64 81 -100t156 -36q101 0 165 41t64 106q0 95 -160 133l-190 44q-156 37 -229.5 110t-73.5 194z" />
    <glyph glyph-name="Scedilla" unicode="&#x15e;" horiz-adv-x="1333" 
d="M643 859l159 -39q222 -52 320 -147.5t98 -258.5q0 -192 -130 -311t-357 -136l-35 -89q99 -2 153.5 -46t54.5 -123q0 -89 -67 -142t-185 -53q-85 0 -147 17v120q46 -14 120 -14q116 0 116 67q0 32 -33 46.5t-109 14.5h-59v97l45 106q-208 19 -335.5 131t-138.5 289h222
q14 -103 107.5 -163.5t238.5 -60.5q135 0 223.5 62.5t88.5 158.5q0 82 -65.5 134.5t-209.5 86.5l-186 45q-196 46 -288 143t-92 256q0 193 144.5 310.5t380.5 117.5q220 0 365 -116t155 -298h-218q-16 100 -97.5 158t-207.5 58q-133 0 -214 -59t-81 -156q0 -77 61.5 -125
t202.5 -81z" />
    <glyph glyph-name="scedilla" unicode="&#x15f;" horiz-adv-x="1104" 
d="M516 660l181 -42q157 -36 230.5 -107t73.5 -190q0 -137 -104 -228.5t-272 -109.5l-41 -105q99 -2 153.5 -46t54.5 -123q0 -89 -67 -142t-185 -53q-85 0 -147 17v120q46 -14 120 -14q116 0 116 67q0 32 -33 46.5t-109 14.5h-59v97l50 120q-164 15 -263 95.5t-112 211.5
h215q21 -64 81 -100t156 -36q101 0 165 41t64 106q0 95 -160 133l-190 44q-156 37 -229.5 110t-73.5 194q0 144 119 236.5t304 92.5q184 0 297 -81t129 -225h-206q-15 61 -72.5 96t-147.5 35q-91 0 -151 -39.5t-60 -102.5q0 -49 42 -81t131 -52z" />
    <glyph glyph-name="Scaron" unicode="&#x160;" horiz-adv-x="1333" 
d="M113 388h222q14 -103 107.5 -163.5t238.5 -60.5q135 0 223.5 62.5t88.5 158.5q0 82 -65.5 134.5t-209.5 86.5l-186 45q-196 46 -288 143t-92 256q0 193 144.5 310.5t380.5 117.5q220 0 365 -116t155 -298h-218q-16 100 -97.5 158t-207.5 58q-133 0 -214 -59t-81 -156
q0 -77 61.5 -125t202.5 -81l159 -39q222 -52 320 -147.5t98 -258.5q0 -207 -150 -328t-406 -121q-240 0 -389.5 115t-161.5 308zM579 1582l-293 306h220l162 -175h18l162 175h220l-293 -306h-196z" />
    <glyph glyph-name="scaron" unicode="&#x161;" horiz-adv-x="1104" 
d="M671 1238h-234l-280 346h222l167 -219h16l167 219h221zM131 781q0 144 119 236.5t304 92.5q184 0 297 -81t129 -225h-206q-15 61 -72.5 96t-147.5 35q-91 0 -151 -39.5t-60 -102.5q0 -49 42 -81t131 -52l181 -42q157 -36 230.5 -107t73.5 -190q0 -152 -127 -247t-324 -95
q-194 0 -313.5 82.5t-133.5 227.5h215q21 -64 81 -100t156 -36q101 0 165 41t64 106q0 95 -160 133l-190 44q-156 37 -229.5 110t-73.5 194z" />
    <glyph glyph-name="Tcedilla" unicode="&#x162;" horiz-adv-x="1317" 
d="M771 0h-1l-48 -122q99 -2 153.5 -46t54.5 -123q0 -89 -67 -142t-185 -53q-85 0 -147 17v120q46 -14 120 -14q116 0 116 67q0 32 -33 46.5t-109 14.5h-59v97l58 138h-77v1239h-454v204h1131v-204h-453v-1239z" />
    <glyph glyph-name="tcedilla" unicode="&#x163;" horiz-adv-x="780" 
d="M683 903h-236v-560q0 -85 37 -124.5t117 -39.5q32 0 82 5v-179q-64 -11 -117 -11q-32 0 -47 1l-46 -117q99 -2 153.5 -46t54.5 -123q0 -89 -67 -142t-185 -53q-85 0 -147 17v120q46 -14 120 -14q116 0 116 67q0 32 -33 46.5t-109 14.5h-59v97l66 158q-79 29 -115 93.5
t-36 174.5v615h-173v181h173v276h215v-276h236v-181z" />
    <glyph glyph-name="Tcaron" unicode="&#x164;" horiz-adv-x="1317" 
d="M560 1582l-293 306h220l162 -175h18l162 175h220l-293 -306h-196zM771 0h-224v1239h-454v204h1131v-204h-453v-1239z" />
    <glyph glyph-name="tcaron" unicode="&#x165;" horiz-adv-x="780" 
d="M569 1727h199l-50 -495h-149v495zM232 1360h215v-276h236v-181h-236v-560q0 -85 37 -124.5t117 -39.5q32 0 82 5v-179q-64 -11 -117 -11q-179 0 -256.5 68t-77.5 226v615h-173v181h173v276z" />
    <glyph glyph-name="Tbar" unicode="&#x166;" horiz-adv-x="1317" 
d="M1224 1239h-453v-443h296v-175h-296v-621h-224v621h-299v175h299v443h-454v204h1131v-204z" />
    <glyph glyph-name="tbar" unicode="&#x167;" horiz-adv-x="776" 
d="M694 494h-247v-151q0 -85 37 -124.5t117 -39.5q32 0 82 5v-179q-64 -11 -117 -11q-179 0 -256.5 68t-77.5 226v206h-176v151h176v258h-173v181h173v276h215v-276h236v-181h-236v-258h247v-151z" />
    <glyph glyph-name="Utilde" unicode="&#x168;" horiz-adv-x="1539" 
d="M409 1443v-926q0 -154 95.5 -248t264.5 -94q170 0 265.5 94t95.5 248v926h224v-946q0 -238 -158.5 -385t-426.5 -147t-426 147t-158 385v946h224zM915 1577q-44 0 -81.5 15.5t-63.5 37.5t-48 44.5t-45 38t-44 15.5q-49 0 -71.5 -36t-22.5 -114h-158q0 140 65 222t177 82
q44 0 81.5 -15.5t63.5 -38t48 -44.5t45 -37.5t44 -15.5q49 0 71.5 35t22.5 113h158q0 -140 -65 -221t-177 -81z" />
    <glyph glyph-name="utilde" unicode="&#x169;" horiz-adv-x="1230" 
d="M1074 1089v-1089h-207v173h-17q-83 -194 -329 -194q-180 0 -277.5 105t-97.5 298v707h215v-651q0 -133 55.5 -196.5t173.5 -63.5q129 0 199 72.5t70 201.5v637h215zM758 1241q-44 0 -81.5 15.5t-63.5 37.5t-48 44.5t-45 38t-44 15.5q-49 0 -71.5 -36t-22.5 -114h-158
q0 140 65 222t177 82q44 0 81.5 -15.5t63.5 -38t48 -44.5t45 -37.5t44 -15.5q49 0 71.5 35t22.5 113h158q0 -140 -65 -221t-177 -81z" />
    <glyph glyph-name="Umacron" unicode="&#x16a;" horiz-adv-x="1539" 
d="M409 1443v-926q0 -154 95.5 -248t264.5 -94q170 0 265.5 94t95.5 248v926h224v-946q0 -238 -158.5 -385t-426.5 -147t-426 147t-158 385v946h224zM1119 1781v-156h-700v156h700z" />
    <glyph glyph-name="umacron" unicode="&#x16b;" horiz-adv-x="1230" 
d="M1074 1089v-1089h-207v173h-17q-83 -194 -329 -194q-180 0 -277.5 105t-97.5 298v707h215v-651q0 -133 55.5 -196.5t173.5 -63.5q129 0 199 72.5t70 201.5v637h215zM958 1454v-155h-696v155h696z" />
    <glyph glyph-name="Ubreve" unicode="&#x16c;" horiz-adv-x="1539" 
d="M409 1443v-926q0 -154 95.5 -248t264.5 -94q170 0 265.5 94t95.5 248v926h224v-946q0 -238 -158.5 -385t-426.5 -147t-426 147t-158 385v946h224zM392 1891h173q1 -78 56 -123.5t148 -45.5t148 45.5t56 123.5h173q0 -142 -101.5 -228t-275.5 -86t-275.5 86t-101.5 228z
" />
    <glyph glyph-name="ubreve" unicode="&#x16d;" horiz-adv-x="1230" 
d="M1074 1089v-1089h-207v173h-17q-83 -194 -329 -194q-180 0 -277.5 105t-97.5 298v707h215v-651q0 -133 55.5 -196.5t173.5 -63.5q129 0 199 72.5t70 201.5v637h215zM231 1576h173q1 -85 55 -137.5t149 -52.5t149 52.5t55 137.5h173q0 -150 -102 -244t-275 -94t-275 94
t-102 244z" />
    <glyph glyph-name="Uring" unicode="&#x16e;" horiz-adv-x="1539" 
d="M769 1549q-84 0 -142.5 57t-58.5 141t58 141t143 57t143 -57t58 -141t-58 -141t-143 -57zM769 1647q44 0 72.5 28.5t28.5 71.5q0 44 -28.5 72t-72.5 28t-72.5 -28t-28.5 -72q0 -43 28.5 -71.5t72.5 -28.5zM409 1443v-926q0 -154 95.5 -248t264.5 -94q170 0 265.5 94
t95.5 248v926h224v-946q0 -238 -158.5 -385t-426.5 -147t-426 147t-158 385v946h224z" />
    <glyph glyph-name="uring" unicode="&#x16f;" horiz-adv-x="1230" 
d="M1074 1089v-1089h-207v173h-17q-83 -194 -329 -194q-180 0 -277.5 105t-97.5 298v707h215v-651q0 -133 55.5 -196.5t173.5 -63.5q129 0 199 72.5t70 201.5v637h215zM610 1238q-99 0 -168 67.5t-69 166.5t68.5 166t168.5 67t168.5 -67t68.5 -166t-69 -166.5t-168 -67.5z
M610 1357q50 0 83 32.5t33 82.5q0 49 -33 81.5t-83 32.5t-83 -32.5t-33 -81.5q0 -50 33 -82.5t83 -32.5z" />
    <glyph glyph-name="Uhungarumlaut" unicode="&#x170;" horiz-adv-x="1539" 
d="M409 1443v-926q0 -154 95.5 -248t264.5 -94q170 0 265.5 94t95.5 248v926h224v-946q0 -238 -158.5 -385t-426.5 -147t-426 147t-158 385v946h224zM1044 1582h-218l289 306h242zM622 1582h-218l288 306h242z" />
    <glyph glyph-name="uhungarumlaut" unicode="&#x171;" horiz-adv-x="1230" 
d="M679 1271l238 344h228l-267 -344h-199zM266 1271l238 344h228l-267 -344h-199zM1074 1089v-1089h-207v173h-17q-83 -194 -329 -194q-180 0 -277.5 105t-97.5 298v707h215v-651q0 -133 55.5 -196.5t173.5 -63.5q129 0 199 72.5t70 201.5v637h215z" />
    <glyph glyph-name="Uogonek" unicode="&#x172;" horiz-adv-x="1538" 
d="M1035 -447q-114 0 -184.5 59.5t-70.5 150.5q0 68 37.5 122t94.5 88v17q-48 -25 -143 -25q-264 0 -424 145.5t-160 386.5v946h224v-926q0 -157 97.5 -249.5t262.5 -92.5q166 0 263.5 92.5t97.5 249.5v926h224v-946q0 -136 -59.5 -249t-189.5 -226q-135 -118 -135 -210
q0 -46 33 -72.5t81 -26.5q46 0 67 7v-148q-49 -19 -116 -19z" />
    <glyph glyph-name="uogonek" unicode="&#x173;" horiz-adv-x="1230" 
d="M1056 -428q-52 -19 -117 -19q-112 0 -183 59.5t-71 153.5q0 77 51.5 142t130.5 96v169h-17q-83 -194 -329 -194q-180 0 -277.5 105t-97.5 298v707h215v-651q0 -133 55.5 -196.5t173.5 -63.5q129 0 199 72.5t70 201.5v637h215v-1089l-21 -6q-81 -28 -130 -77.5t-49 -106.5
q0 -43 31.5 -70t82.5 -27q48 0 68 7v-148z" />
    <glyph glyph-name="Wcircumflex" unicode="&#x174;" horiz-adv-x="2013" 
d="M905 1896h202l295 -314h-225l-163 181h-16l-163 -181h-225zM999 1059l-309 -1059h-212l-389 1443h233l265 -1105h14l301 1105h208l303 -1105h14l264 1105h233l-390 -1443h-211l-310 1059h-14z" />
    <glyph glyph-name="wcircumflex" unicode="&#x175;" horiz-adv-x="1640" 
d="M938 1584l279 -346h-221l-167 219h-16l-167 -219h-222l280 346h234zM1574 1089l-299 -1089h-223l-225 802h-17l-224 -802h-221l-300 1089h218l195 -831h16l224 831h206l224 -831h17l194 831h215z" />
    <glyph glyph-name="Ycircumflex" unicode="&#x176;" horiz-adv-x="1383" 
d="M803 0h-224v582l-508 861h249l363 -625h17l363 625h249l-509 -861v-582zM590 1896h202l295 -314h-225l-163 181h-16l-163 -181h-225z" />
    <glyph glyph-name="ycircumflex" unicode="&#x177;" horiz-adv-x="1152" 
d="M264 -395q-56 0 -89 5v185q23 -4 70 -4q77 0 123 35t74 117l16 53l-394 1093h234l273 -865h17l272 865h228l-406 -1134q-70 -198 -160.5 -274t-257.5 -76zM691 1584l279 -346h-221l-167 219h-16l-167 -219h-222l280 346h234z" />
    <glyph glyph-name="Ydieresis" unicode="&#x178;" horiz-adv-x="1383" 
d="M803 0h-224v582l-508 861h249l363 -625h17l363 625h249l-509 -861v-582zM478 1577q-57 0 -95.5 38.5t-38.5 95.5t38.5 96t95.5 39q56 0 94.5 -39t38.5 -96t-38.5 -95.5t-94.5 -38.5zM905 1577q-56 0 -95 38.5t-39 95.5t39 96t95 39t94.5 -39t38.5 -96t-38.5 -95.5
t-94.5 -38.5z" />
    <glyph glyph-name="Zacute" unicode="&#x179;" horiz-adv-x="1365" 
d="M795 1582h-230l297 306h258zM141 0v161l784 1061v17h-760v204h1041v-161l-780 -1061v-17h799v-204h-1084z" />
    <glyph glyph-name="zacute" unicode="&#x17a;" horiz-adv-x="1124" 
d="M649 1271h-222l251 344h252zM131 0v146l599 744v17h-595v182h852v-157l-586 -733v-17h592v-182h-862z" />
    <glyph glyph-name="Zdotaccent" unicode="&#x17b;" horiz-adv-x="1365" 
d="M683 1577q-57 0 -95.5 39.5t-38.5 97.5t38.5 97.5t95.5 39.5t95.5 -39.5t38.5 -97.5t-38.5 -97.5t-95.5 -39.5zM141 0v161l784 1061v17h-760v204h1041v-161l-780 -1061v-17h799v-204h-1084z" />
    <glyph glyph-name="zdotaccent" unicode="&#x17c;" horiz-adv-x="1124" 
d="M556 1283q-59 0 -99.5 41.5t-40.5 100.5t40.5 100.5t99.5 41.5q58 0 99 -41.5t41 -100.5t-41 -100.5t-99 -41.5zM131 0v146l599 744v17h-595v182h852v-157l-586 -733v-17h592v-182h-862z" />
    <glyph glyph-name="Zcaron" unicode="&#x17d;" horiz-adv-x="1365" 
d="M141 0v161l784 1061v17h-760v204h1041v-161l-780 -1061v-17h799v-204h-1084zM585 1582l-293 306h220l162 -175h18l162 175h220l-293 -306h-196z" />
    <glyph glyph-name="zcaron" unicode="&#x17e;" horiz-adv-x="1124" 
d="M673 1238h-234l-280 346h222l167 -219h16l167 219h221zM131 0v146l599 744v17h-595v182h852v-157l-586 -733v-17h592v-182h-862z" />
    <glyph glyph-name="florin" unicode="&#x192;" horiz-adv-x="1359" 
d="M1264 1445v-195q-74 20 -182 20q-217 0 -247 -207l-28 -190h361v-176h-388l-52 -348q-28 -193 -132.5 -283t-290.5 -90q-116 0 -217 25v202q92 -31 193 -31q201 0 229 191l50 334h-328v176h354l31 210q28 186 139.5 283t298.5 97q133 0 209 -18z" />
    <glyph glyph-name="Ohorn" unicode="&#x1a0;" horiz-adv-x="1625" 
d="M796 -35q-313 0 -493.5 203.5t-180.5 553.5q0 349 181.5 552.5t492.5 203.5q80 0 213 -22t209 -22q60 0 84.5 21t24.5 70v151h185v-211q0 -88 -53.5 -138t-137.5 -50h-60v-13q92 -66 149.5 -216t57.5 -326q0 -349 -180 -553t-492 -204zM796 174q205 0 324 148.5
t119 399.5q0 252 -119 399.5t-324 147.5q-204 0 -324.5 -148t-120.5 -399t119 -399.5t326 -148.5z" />
    <glyph glyph-name="ohorn" unicode="&#x1a1;" horiz-adv-x="1295" 
d="M616 170q139 0 215.5 98.5t76.5 276.5t-76.5 276t-215.5 98t-215.5 -98t-76.5 -276q0 -179 76.5 -277t215.5 -98zM1129 545q0 -264 -137 -415t-376 -151q-240 0 -377 151t-137 415q0 262 137.5 413.5t376.5 151.5q69 0 149.5 -15t130.5 -15q62 0 85.5 20t23.5 69v141h185
v-204q0 -82 -45 -128t-112 -46h-52v-10q66 -46 107 -147.5t41 -229.5z" />
    <glyph glyph-name="Uhorn" unicode="&#x1af;" horiz-adv-x="1692" 
d="M769 -35q-264 0 -424 145.5t-160 386.5v946h224v-926q0 -157 97.5 -249.5t262.5 -92.5q166 0 263.5 92.5t97.5 249.5v926h229q87 0 87 83v170h185v-213q0 -96 -57.5 -147.5t-153.5 -51.5h-66v-787q0 -241 -160.5 -386.5t-424.5 -145.5z" />
    <glyph glyph-name="uhorn" unicode="&#x1b0;" horiz-adv-x="1385" 
d="M850 173q-83 -194 -329 -194q-180 0 -277.5 105.5t-97.5 297.5v707h215v-651q0 -132 55.5 -196t173.5 -64q129 0 199 72t70 202v637h197q86 0 86 83v155h185v-198q0 -96 -57.5 -147.5t-153.5 -51.5h-42v-930h-207v173h-17z" />
    <glyph glyph-name="uni01C4" unicode="&#x1c4;" horiz-adv-x="2871" 
d="M181 1443h521q321 0 500 -188.5t179 -528.5q0 -346 -178 -536t-501 -190h-521v1443zM405 1239v-1035h272q227 0 351.5 135.5t124.5 383.5q0 244 -125.5 380t-350.5 136h-272zM1647 0v161l784 1061v17h-760v204h1041v-161l-780 -1061v-17h799v-204h-1084zM2091 1582
l-293 306h220l162 -175h18l162 175h220l-293 -306h-196z" />
    <glyph glyph-name="uni01C5" unicode="&#x1c5;" horiz-adv-x="2630" 
d="M181 1443h521q321 0 500 -188.5t179 -528.5q0 -346 -178 -536t-501 -190h-521v1443zM405 1239v-1035h272q227 0 351.5 135.5t124.5 383.5q0 244 -125.5 380t-350.5 136h-272zM2179 1238h-234l-280 346h222l167 -219h16l167 219h221zM1637 0v146l599 744v17h-595v182h852
v-157l-586 -733v-17h592v-182h-862z" />
    <glyph glyph-name="uni01C6" unicode="&#x1c6;" horiz-adv-x="2413" 
d="M554 -18q-208 0 -330 152t-122 411q0 258 122.5 410t329.5 152q112 0 201 -50.5t133 -140.5h16v598h215v-1514h-206v172h-17q-49 -89 -139.5 -139.5t-202.5 -50.5zM615 914q-136 0 -213.5 -98.5t-77.5 -270.5q0 -173 77.5 -271.5t213.5 -98.5t214.5 99t78.5 270
q0 170 -79 270t-214 100zM1962 1238h-234l-280 346h222l167 -219h16l167 219h221zM1420 0v146l599 744v17h-595v182h852v-157l-586 -733v-17h592v-182h-862z" />
    <glyph glyph-name="uni01C7" unicode="&#x1c7;" horiz-adv-x="2329" 
d="M1263 375h220q2 -89 62 -144t156 -55q108 0 166 63.5t58 183.5v1020h224v-1021q0 -217 -118.5 -337t-327.5 -120q-197 0 -318.5 112.5t-121.5 297.5zM1081 206v-206h-900v1443h224v-1237h676z" />
    <glyph glyph-name="uni01C8" unicode="&#x1c8;" horiz-adv-x="1726" 
d="M1555 1089v-1134q0 -167 -86.5 -247t-264.5 -80q-43 0 -48 1v180h30q85 0 120 34t35 114v1132h214zM1448 1280q-60 0 -99.5 37.5t-39.5 93.5t39.5 94t99.5 38t99.5 -38t39.5 -94t-39.5 -93.5t-99.5 -37.5zM1081 206v-206h-900v1443h224v-1237h676z" />
    <glyph glyph-name="uni01C9" unicode="&#x1c9;" horiz-adv-x="1090" 
d="M919 1089v-1134q0 -167 -86.5 -247t-264.5 -80q-43 0 -48 1v180h30q85 0 120 34t35 114v1132h214zM812 1280q-60 0 -99.5 37.5t-39.5 93.5t39.5 94t99.5 38t99.5 -38t39.5 -94t-39.5 -93.5t-99.5 -37.5zM166 0v1514h215v-1514h-215z" />
    <glyph glyph-name="uni01CA" unicode="&#x1ca;" horiz-adv-x="2688" 
d="M1621 375h220q2 -89 62 -144t156 -55q108 0 166 63.5t58 183.5v1020h224v-1021q0 -217 -118.5 -337t-327.5 -120q-197 0 -318.5 112.5t-121.5 297.5zM399 0h-218v1443h202l741 -1025h16v1025h218v-1443h-202l-741 1025h-16v-1025z" />
    <glyph glyph-name="uni01CB" unicode="&#x1cb;" horiz-adv-x="2084" 
d="M1913 1089v-1134q0 -167 -86.5 -247t-264.5 -80q-43 0 -48 1v180h30q85 0 120 34t35 114v1132h214zM1806 1280q-60 0 -99.5 37.5t-39.5 93.5t39.5 94t99.5 38t99.5 -38t39.5 -94t-39.5 -93.5t-99.5 -37.5zM399 0h-218v1443h202l741 -1025h16v1025h218v-1443h-202
l-741 1025h-16v-1025z" />
    <glyph glyph-name="uni01CC" unicode="&#x1cc;" horiz-adv-x="1761" 
d="M1601 1089v-1134q0 -167 -86.5 -247t-264.5 -80q-43 0 -48 1v180h30q85 0 120 34t35 114v1132h214zM1494 1280q-60 0 -99.5 37.5t-39.5 93.5t39.5 94t99.5 38t99.5 -38t39.5 -94t-39.5 -93.5t-99.5 -37.5zM156 0v1089h207v-173h16q85 194 325 194q182 0 279.5 -105
t97.5 -300v-705h-215v651q0 262 -235 262q-119 0 -189.5 -74.5t-70.5 -201.5v-637h-215z" />
    <glyph glyph-name="Acaron" unicode="&#x1cd;" horiz-adv-x="1423" 
d="M1115 0l-132 383h-550l-133 -383h-230l521 1443h241l521 -1443h-238zM700 1181l-210 -610h436l-209 610h-17zM614 1582l-293 306h220l162 -175h18l162 175h220l-293 -306h-196z" />
    <glyph glyph-name="acaron" unicode="&#x1ce;" horiz-adv-x="1158" 
d="M512 163q121 0 201.5 68t80.5 170v91l-266 -17q-112 -7 -165 -46t-53 -111t56 -113.5t146 -41.5zM457 -18q-160 0 -261.5 89.5t-101.5 236.5q0 146 105 229.5t300 95.5l295 17v94q0 87 -57 133.5t-166 46.5q-90 0 -149.5 -31.5t-77.5 -89.5h-208q16 140 137.5 223.5
t307.5 83.5q204 0 315.5 -96.5t111.5 -269.5v-744h-207v153h-17q-49 -82 -134.5 -126.5t-192.5 -44.5zM698 1238h-234l-280 346h222l167 -219h16l167 219h221z" />
    <glyph glyph-name="Icaron" unicode="&#x1cf;" horiz-adv-x="585" 
d="M405 0h-224v1443h224v-1443zM195 1582l-293 306h220l162 -175h18l162 175h220l-293 -306h-196z" />
    <glyph glyph-name="icaron" unicode="&#x1d0;" horiz-adv-x="534" 
d="M384 1238h-234l-280 346h222l167 -219h16l167 219h221zM160 0v1089h214v-1089h-214z" />
    <glyph glyph-name="Ocaron" unicode="&#x1d1;" horiz-adv-x="1590" 
d="M698 1582l-293 306h220l162 -175h18l162 175h220l-293 -306h-196zM796 1478q312 0 492 -203.5t180 -552.5t-180 -553t-492 -204q-313 0 -493.5 203.5t-180.5 553.5q0 349 181.5 552.5t492.5 203.5zM796 1269q-204 0 -324.5 -148t-120.5 -399t119 -399.5t326 -148.5
q205 0 324 148.5t119 399.5q0 252 -119 399.5t-324 147.5z" />
    <glyph glyph-name="ocaron" unicode="&#x1d2;" horiz-adv-x="1231" 
d="M733 1238h-234l-280 346h222l167 -219h16l167 219h221zM616 -21q-240 0 -377 151t-137 415q0 263 137.5 414t376.5 151q238 0 375.5 -151t137.5 -414q0 -264 -137 -415t-376 -151zM616 170q139 0 215.5 98.5t76.5 276.5q0 177 -76.5 275.5t-215.5 98.5q-140 0 -216 -98
t-76 -276q0 -179 76 -277t216 -98z" />
    <glyph glyph-name="Ucaron" unicode="&#x1d3;" horiz-adv-x="1539" 
d="M671 1582l-293 306h220l162 -175h18l162 175h220l-293 -306h-196zM409 1443v-926q0 -154 95.5 -248t264.5 -94q170 0 265.5 94t95.5 248v926h224v-946q0 -238 -158.5 -385t-426.5 -147t-426 147t-158 385v946h224z" />
    <glyph glyph-name="ucaron" unicode="&#x1d4;" horiz-adv-x="1230" 
d="M727 1238h-234l-280 346h222l167 -219h16l167 219h221zM1074 1089v-1089h-207v173h-17q-83 -194 -329 -194q-180 0 -277.5 105t-97.5 298v707h215v-651q0 -133 55.5 -196.5t173.5 -63.5q129 0 199 72.5t70 201.5v637h215z" />
    <glyph glyph-name="Udieresismacron" unicode="&#x1d5;" horiz-adv-x="1539" 
d="M409 1443v-926q0 -154 95.5 -248t264.5 -94q170 0 265.5 94t95.5 248v926h224v-946q0 -238 -158.5 -385t-426.5 -147t-426 147t-158 385v946h224zM555 1840q55 0 92.5 -38t37.5 -94t-37.5 -93.5t-92.5 -37.5t-92.5 38t-37.5 93q0 56 37.5 94t92.5 38zM419 2107h700v-147
h-700v147zM983 1840q55 0 92.5 -38t37.5 -94q0 -55 -37.5 -93t-92.5 -38t-92.5 37.5t-37.5 93.5t37.5 94t92.5 38z" />
    <glyph glyph-name="udieresismacron" unicode="&#x1d6;" horiz-adv-x="1230" 
d="M1074 1089v-1089h-207v173h-17q-83 -194 -329 -194q-180 0 -277.5 105t-97.5 298v707h215v-651q0 -133 55.5 -196.5t173.5 -63.5q129 0 199 72.5t70 201.5v637h215zM401 1238q-54 0 -90.5 37.5t-36.5 91.5q0 55 36.5 92.5t90.5 37.5t90.5 -37.5t36.5 -92.5
q0 -54 -36.5 -91.5t-90.5 -37.5zM819 1238q-54 0 -90.5 37.5t-36.5 91.5q0 55 36.5 92.5t90.5 37.5t90.5 -37.5t36.5 -92.5q0 -54 -36.5 -91.5t-90.5 -37.5zM958 1800v-155h-696v155h696z" />
    <glyph glyph-name="Udieresisacute" unicode="&#x1d7;" horiz-adv-x="1539" 
d="M669 1901l207 231h251l-258 -231h-200zM555 1577q-56 0 -94.5 38.5t-38.5 95.5t38.5 96t94.5 39q57 0 95.5 -39t38.5 -96t-38.5 -95.5t-95.5 -38.5zM983 1577q-57 0 -95.5 38.5t-38.5 95.5t38.5 96t95.5 39q56 0 94.5 -39t38.5 -96t-38.5 -95.5t-94.5 -38.5zM409 1443
v-926q0 -154 95.5 -248t264.5 -94q170 0 265.5 94t95.5 248v926h224v-946q0 -238 -158.5 -385t-426.5 -147t-426 147t-158 385v946h224z" />
    <glyph glyph-name="udieresisacute" unicode="&#x1d8;" horiz-adv-x="1230" 
d="M500 1604l196 306h228l-229 -306h-195zM397 1239q-57 0 -95.5 38.5t-38.5 95.5t38.5 96t95.5 39q56 0 94.5 -39t38.5 -96t-38.5 -95.5t-94.5 -38.5zM824 1239q-56 0 -95 38.5t-39 95.5t39 96t95 39t94.5 -39t38.5 -96t-38.5 -95.5t-94.5 -38.5zM1074 1089v-1089h-207v173
h-17q-83 -194 -329 -194q-180 0 -277.5 105t-97.5 298v707h215v-651q0 -133 55.5 -196.5t173.5 -63.5q129 0 199 72.5t70 201.5v637h215z" />
    <glyph glyph-name="Udieresiscaron" unicode="&#x1d9;" horiz-adv-x="1539" 
d="M658 1883l-289 262h237l154 -148h18l154 148h237l-289 -262h-222zM555 1828q55 0 92.5 -37t37.5 -92q0 -54 -37.5 -91.5t-92.5 -37.5t-92 37.5t-37 91.5q0 55 37 92t92 37zM983 1828q55 0 92 -37t37 -92q0 -54 -37 -91.5t-92 -37.5t-92.5 37.5t-37.5 91.5q0 55 37.5 92
t92.5 37zM409 1443v-926q0 -154 95.5 -248t264.5 -94q170 0 265.5 94t95.5 248v926h224v-946q0 -238 -158.5 -385t-426.5 -147t-426 147t-158 385v946h224z" />
    <glyph glyph-name="udieresiscaron" unicode="&#x1da;" horiz-adv-x="1230" 
d="M401 1238q-54 0 -90.5 37.5t-36.5 91.5q0 55 36.5 92.5t90.5 37.5t90.5 -37.5t36.5 -92.5q0 -54 -36.5 -91.5t-90.5 -37.5zM819 1238q-54 0 -90.5 37.5t-36.5 91.5q0 55 36.5 92.5t90.5 37.5t90.5 -37.5t36.5 -92.5q0 -54 -36.5 -91.5t-90.5 -37.5zM724 1596h-228
l-278 331h219l165 -207h16l165 207h219zM1074 1089v-1089h-207v173h-17q-83 -194 -329 -194q-180 0 -277.5 105t-97.5 298v707h215v-651q0 -133 55.5 -196.5t173.5 -63.5q129 0 199 72.5t70 201.5v637h215z" />
    <glyph glyph-name="Udieresisgrave" unicode="&#x1db;" horiz-adv-x="1539" 
d="M883 1901h-199l-258 231h250zM555 1577q-56 0 -94.5 38.5t-38.5 95.5t38.5 96t94.5 39q57 0 95.5 -39t38.5 -96t-38.5 -95.5t-95.5 -38.5zM983 1577q-57 0 -95.5 38.5t-38.5 95.5t38.5 96t95.5 39q56 0 94.5 -39t38.5 -96t-38.5 -95.5t-94.5 -38.5zM409 1443v-926
q0 -154 95.5 -248t264.5 -94q170 0 265.5 94t95.5 248v926h224v-946q0 -238 -158.5 -385t-426.5 -147t-426 147t-158 385v946h224z" />
    <glyph glyph-name="udieresisgrave" unicode="&#x1dc;" horiz-adv-x="1230" 
d="M720 1604h-195l-229 306h228zM397 1241q-57 0 -95.5 38.5t-38.5 95.5t38.5 96t95.5 39q56 0 94.5 -39t38.5 -96t-38.5 -95.5t-94.5 -38.5zM824 1241q-56 0 -95 38.5t-39 95.5t39 96t95 39t94.5 -39t38.5 -96t-38.5 -95.5t-94.5 -38.5zM1074 1089v-1089h-207v173h-17
q-83 -194 -329 -194q-180 0 -277.5 105t-97.5 298v707h215v-651q0 -133 55.5 -196.5t173.5 -63.5q129 0 199 72.5t70 201.5v637h215z" />
    <glyph glyph-name="Adieresismacron" unicode="&#x1de;" horiz-adv-x="1423" 
d="M1115 0l-132 383h-550l-133 -383h-230l521 1443h241l521 -1443h-238zM700 1181l-210 -610h436l-209 610h-17zM498 1840q55 0 92.5 -38t37.5 -94t-37.5 -93.5t-92.5 -37.5t-92.5 38t-37.5 93q0 56 37.5 94t92.5 38zM362 2107h700v-147h-700v147zM926 1840q55 0 92.5 -38
t37.5 -94q0 -55 -37.5 -93t-92.5 -38t-92.5 37.5t-37.5 93.5t37.5 94t92.5 38z" />
    <glyph glyph-name="adieresismacron" unicode="&#x1df;" horiz-adv-x="1158" 
d="M512 163q121 0 201.5 68t80.5 170v91l-266 -17q-112 -7 -165 -46t-53 -111t56 -113.5t146 -41.5zM457 -18q-160 0 -261.5 89.5t-101.5 236.5q0 146 105 229.5t300 95.5l295 17v94q0 87 -57 133.5t-166 46.5q-90 0 -149.5 -31.5t-77.5 -89.5h-208q16 140 137.5 223.5
t307.5 83.5q204 0 315.5 -96.5t111.5 -269.5v-744h-207v153h-17q-49 -82 -134.5 -126.5t-192.5 -44.5zM372 1238q-54 0 -90.5 37.5t-36.5 91.5q0 55 36.5 92.5t90.5 37.5t90.5 -37.5t36.5 -92.5q0 -54 -36.5 -91.5t-90.5 -37.5zM790 1238q-54 0 -90.5 37.5t-36.5 91.5
q0 55 36.5 92.5t90.5 37.5t90.5 -37.5t36.5 -92.5q0 -54 -36.5 -91.5t-90.5 -37.5zM929 1800v-155h-696v155h696z" />
    <glyph glyph-name="Adotmacron" unicode="&#x1e0;" horiz-adv-x="1423" 
d="M1115 0l-132 383h-550l-133 -383h-230l521 1443h241l521 -1443h-238zM700 1181l-210 -610h436l-209 610h-17zM712 1576q-56 0 -94 38t-38 94t38 94t94 38t94 -38t38 -94t-38 -94t-94 -38zM1062 2107v-147h-700v147h700z" />
    <glyph glyph-name="adotmacron" unicode="&#x1e1;" horiz-adv-x="1158" 
d="M512 163q121 0 201.5 68t80.5 170v91l-266 -17q-112 -7 -165 -46t-53 -111t56 -113.5t146 -41.5zM457 -18q-160 0 -261.5 89.5t-101.5 236.5q0 146 105 229.5t300 95.5l295 17v94q0 87 -57 133.5t-166 46.5q-90 0 -149.5 -31.5t-77.5 -89.5h-208q16 140 137.5 223.5
t307.5 83.5q204 0 315.5 -96.5t111.5 -269.5v-744h-207v153h-17q-49 -82 -134.5 -126.5t-192.5 -44.5zM581 1238q-56 0 -93 38t-37 94q0 57 37 95t93 38t93 -38t37 -95q0 -56 -37 -94t-93 -38zM929 1800v-155h-696v155h696z" />
    <glyph glyph-name="AEmacron" unicode="&#x1e2;" horiz-adv-x="1999" 
d="M847 1253l-288 -647h428v647h-140zM987 0v417h-504l-189 -417h-224l631 1443h1156v-204h-655v-415h618v-195h-618v-425h655v-204h-870zM1819 1781v-156h-700v156h700z" />
    <glyph glyph-name="aemacron" unicode="&#x1e3;" horiz-adv-x="1868" 
d="M1297 -21q-129 0 -235.5 59.5t-152.5 156.5h-17q-56 -101 -161.5 -158.5t-244.5 -57.5q-177 0 -284.5 90t-107.5 239q0 146 105 229.5t300 95.5l295 17v87q0 91 -57.5 139t-165.5 48q-91 0 -150 -31.5t-77 -89.5h-208q16 137 136 222t298 85q126 0 215.5 -47t135.5 -126
h17q52 77 147.5 125t208.5 48q219 0 344 -143.5t125 -394.5v-79h-760v-21q5 -141 85.5 -225t210.5 -84q180 0 245 131h207q-38 -149 -157.5 -232t-296.5 -83zM1282 928q-120 0 -195.5 -75t-83.5 -201h542q-4 122 -77 199t-186 77zM520 161q119 0 196.5 71t77.5 172v88
l-266 -17q-112 -7 -165 -46t-53 -112t57.5 -114.5t152.5 -41.5zM1303 1454v-155h-696v155h696z" />
    <glyph glyph-name="Gcaron" unicode="&#x1e6;" horiz-adv-x="1539" 
d="M689 1582l-293 306h220l162 -175h18l162 175h220l-293 -306h-196zM1412 571q0 -277 -169.5 -441.5t-453.5 -164.5q-307 0 -487 204t-180 553q0 345 181 550.5t484 205.5q246 0 412 -129.5t203 -348.5h-225q-42 131 -142 200t-248 69q-200 0 -318 -147.5t-118 -397.5
q0 -255 118.5 -402.5t322.5 -147.5q177 0 288 99t112 259v31h-372v188h592v-180z" />
    <glyph glyph-name="gcaron" unicode="&#x1e7;" horiz-adv-x="1274" 
d="M729 1238h-234l-280 346h222l167 -219h16l167 219h221zM612 202q137 0 216 96t79 260q0 163 -79 259.5t-216 96.5t-213 -95.5t-76 -260.5t76 -260.5t213 -95.5zM615 -416q-202 0 -328 83.5t-143 223.5h220q14 -60 80.5 -95t173.5 -35q134 0 209.5 60.5t75.5 168.5v209
h-16q-49 -88 -136 -135.5t-200 -47.5q-207 0 -328.5 147.5t-121.5 393.5q0 250 122 400t330 150q112 0 204 -51.5t138 -140.5h17v174h206v-1098q0 -187 -136 -297t-367 -110z" />
    <glyph glyph-name="Kcaron" unicode="&#x1e8;" horiz-adv-x="1386" 
d="M405 0h-224v1443h224v-676h16l597 676h265l-558 -627l606 -816h-280l-484 655l-162 -181v-474zM572 1582l-293 306h220l162 -175h18l162 175h220l-293 -306h-196z" />
    <glyph glyph-name="kcaron" unicode="&#x1e9;" horiz-adv-x="1155" 
d="M398 635l432 454h254l-448 -467l478 -622h-264l-374 480l-95 -90v-390h-215v1514h215v-879h17zM176 1653l-293 306h220l162 -175h18l162 175h220l-293 -306h-196z" />
    <glyph glyph-name="Oogonek" unicode="&#x1ea;" horiz-adv-x="1590" 
d="M1060 -447q-112 0 -183.5 59t-71.5 151q0 63 35 118t97 92v17q-17 -10 -58.5 -17.5t-82.5 -7.5q-312 0 -493 203.5t-181 553.5q0 348 182 552t492 204q311 0 491.5 -203.5t180.5 -552.5q0 -219 -80 -387t-256 -316q-137 -114 -137 -207q0 -43 31 -71t83 -28q47 0 67 7
v-148q-52 -19 -116 -19zM796 1269q-204 0 -324.5 -148t-120.5 -399q0 -253 120 -400.5t325 -147.5q204 0 323.5 148t119.5 400t-119 399.5t-324 147.5z" />
    <glyph glyph-name="oogonek" unicode="&#x1eb;" horiz-adv-x="1231" 
d="M815 -447q-114 0 -184.5 60.5t-70.5 152.5q0 60 34 114.5t97 93.5v17q-22 -12 -75 -12q-240 0 -377 151t-137 415q0 262 137.5 413.5t376.5 151.5t376 -151t137 -414q0 -319 -244 -528q-135 -118 -135 -205q0 -47 32.5 -73t81.5 -26q46 0 67 7v-148q-49 -19 -116 -19z
M616 170q139 0 215.5 98.5t76.5 276.5t-76.5 276t-215.5 98t-215.5 -98t-76.5 -276q0 -179 76.5 -277t215.5 -98z" />
    <glyph glyph-name="Oogonekmacron" unicode="&#x1ec;" horiz-adv-x="1590" 
d="M1060 -447q-112 0 -183.5 59t-71.5 151q0 63 35 118t97 92v17q-17 -10 -58.5 -17.5t-82.5 -7.5q-312 0 -493 203.5t-181 553.5q0 348 182 552t492 204q311 0 491.5 -203.5t180.5 -552.5q0 -219 -80 -387t-256 -316q-137 -114 -137 -207q0 -43 31 -71t83 -28q47 0 67 7
v-148q-52 -19 -116 -19zM796 1269q-204 0 -324.5 -148t-120.5 -399q0 -253 120 -400.5t325 -147.5q204 0 323.5 148t119.5 400t-119 399.5t-324 147.5zM1146 1781v-156h-700v156h700z" />
    <glyph glyph-name="oogonekmacron" unicode="&#x1ed;" horiz-adv-x="1231" 
d="M815 -447q-114 0 -184.5 60.5t-70.5 152.5q0 60 34 114.5t97 93.5v17q-22 -12 -75 -12q-240 0 -377 151t-137 415q0 262 137.5 413.5t376.5 151.5t376 -151t137 -414q0 -319 -244 -528q-135 -118 -135 -205q0 -47 32.5 -73t81.5 -26q46 0 67 7v-148q-49 -19 -116 -19z
M616 170q139 0 215.5 98.5t76.5 276.5t-76.5 276t-215.5 98t-215.5 -98t-76.5 -276q0 -179 76.5 -277t215.5 -98zM964 1454v-155h-696v155h696z" />
    <glyph glyph-name="uni01F1" unicode="&#x1f1;" horiz-adv-x="2871" 
d="M1647 0v161l784 1061v17h-760v204h1041v-161l-780 -1061v-17h799v-204h-1084zM181 1443h521q321 0 500 -188.5t179 -528.5q0 -346 -178 -536t-501 -190h-521v1443zM405 1239v-1035h272q227 0 351.5 135.5t124.5 383.5q0 244 -125.5 380t-350.5 136h-272z" />
    <glyph glyph-name="uni01F2" unicode="&#x1f2;" horiz-adv-x="2630" 
d="M1637 0v146l599 744v17h-595v182h852v-157l-586 -733v-17h592v-182h-862zM181 1443h521q321 0 500 -188.5t179 -528.5q0 -346 -178 -536t-501 -190h-521v1443zM405 1239v-1035h272q227 0 351.5 135.5t124.5 383.5q0 244 -125.5 380t-350.5 136h-272z" />
    <glyph glyph-name="uni01F3" unicode="&#x1f3;" horiz-adv-x="2413" 
d="M1420 0v146l599 744v17h-595v182h852v-157l-586 -733v-17h592v-182h-862zM554 -18q-208 0 -330 152t-122 411q0 258 122.5 410t329.5 152q112 0 201 -50.5t133 -140.5h16v598h215v-1514h-206v172h-17q-49 -89 -139.5 -139.5t-202.5 -50.5zM615 914q-136 0 -213.5 -98.5
t-77.5 -270.5q0 -173 77.5 -271.5t213.5 -98.5t214.5 99t78.5 270q0 170 -79 270t-214 100z" />
    <glyph glyph-name="Gacute" unicode="&#x1f4;" horiz-adv-x="1539" 
d="M899 1582h-230l297 306h258zM1412 571q0 -277 -169.5 -441.5t-453.5 -164.5q-307 0 -487 204t-180 553q0 345 181 550.5t484 205.5q246 0 412 -129.5t203 -348.5h-225q-42 131 -142 200t-248 69q-200 0 -318 -147.5t-118 -397.5q0 -255 118.5 -402.5t322.5 -147.5
q177 0 288 99t112 259v31h-372v188h592v-180z" />
    <glyph glyph-name="gacute" unicode="&#x1f5;" horiz-adv-x="1274" 
d="M705 1271h-222l251 344h252zM612 202q137 0 216 96t79 260q0 163 -79 259.5t-216 96.5t-213 -95.5t-76 -260.5t76 -260.5t213 -95.5zM615 -416q-202 0 -328 83.5t-143 223.5h220q14 -60 80.5 -95t173.5 -35q134 0 209.5 60.5t75.5 168.5v209h-16q-49 -88 -136 -135.5
t-200 -47.5q-207 0 -328.5 147.5t-121.5 393.5q0 250 122 400t330 150q112 0 204 -51.5t138 -140.5h17v174h206v-1098q0 -187 -136 -297t-367 -110z" />
    <glyph glyph-name="Ngrave" unicode="&#x1f8;" horiz-adv-x="1539" 
d="M655 1582l-326 306h258l298 -306h-230zM399 0h-218v1443h202l741 -1025h16v1025h218v-1443h-202l-741 1025h-16v-1025z" />
    <glyph glyph-name="ngrave" unicode="&#x1f9;" horiz-adv-x="1227" 
d="M757 1271h-221l-282 344h252zM156 0v1089h207v-173h16q85 194 325 194q182 0 279.5 -105t97.5 -300v-705h-215v651q0 262 -235 262q-119 0 -189.5 -74.5t-70.5 -201.5v-637h-215z" />
    <glyph glyph-name="Aringacute" unicode="&#x1fa;" horiz-adv-x="1423" 
d="M1115 0l-132 383h-550l-133 -383h-230l521 1443h241l521 -1443h-238zM700 1181l-210 -610h436l-209 610h-17zM712 1532q-87 0 -147 58.5t-60 145.5q0 86 60 144t147 58t147 -58t60 -144q0 -87 -60 -145.5t-147 -58.5zM712 1640q40 0 67.5 27t27.5 67t-27.5 67.5
t-67.5 27.5t-67.5 -27.5t-27.5 -67.5t27.5 -67t67.5 -27zM754 2191h214l-160 -186h-188z" />
    <glyph glyph-name="aringacute" unicode="&#x1fb;" horiz-adv-x="1158" 
d="M512 163q121 0 201.5 68t80.5 170v91l-266 -17q-112 -7 -165 -46t-53 -111t56 -113.5t146 -41.5zM457 -18q-160 0 -261.5 89.5t-101.5 236.5q0 146 105 229.5t300 95.5l295 17v94q0 87 -57 133.5t-166 46.5q-90 0 -149.5 -31.5t-77.5 -89.5h-208q16 140 137.5 223.5
t307.5 83.5q204 0 315.5 -96.5t111.5 -269.5v-744h-207v153h-17q-49 -82 -134.5 -126.5t-192.5 -44.5zM581 1207q-89 0 -150 60t-61 148t61 148.5t150 60.5t150 -60.5t61 -148.5t-61 -148t-150 -60zM484 1415q0 -42 28 -70t69 -28t69 28t28 70q0 41 -28 69t-69 28t-69 -28
t-28 -69zM488 1707l164 231h218l-196 -231h-186z" />
    <glyph glyph-name="AEacute" unicode="&#x1fc;" horiz-adv-x="1999" 
d="M1581 1582h-230l297 306h258zM847 1253l-288 -647h428v647h-140zM987 0v417h-504l-189 -417h-224l631 1443h1156v-204h-655v-415h618v-195h-618v-425h655v-204h-870z" />
    <glyph glyph-name="aeacute" unicode="&#x1fd;" horiz-adv-x="1868" 
d="M1048 1271h-222l251 344h252zM1297 -21q-129 0 -235.5 59.5t-152.5 156.5h-17q-56 -101 -161.5 -158.5t-244.5 -57.5q-177 0 -284.5 90t-107.5 239q0 146 105 229.5t300 95.5l295 17v87q0 91 -57.5 139t-165.5 48q-91 0 -150 -31.5t-77 -89.5h-208q16 137 136 222t298 85
q126 0 215.5 -47t135.5 -126h17q52 77 147.5 125t208.5 48q219 0 344 -143.5t125 -394.5v-79h-760v-21q5 -141 85.5 -225t210.5 -84q180 0 245 131h207q-38 -149 -157.5 -232t-296.5 -83zM1282 928q-120 0 -195.5 -75t-83.5 -201h542q-4 122 -77 199t-186 77zM520 161
q119 0 196.5 71t77.5 172v88l-266 -17q-112 -7 -165 -46t-53 -112t57.5 -114.5t152.5 -41.5z" />
    <glyph glyph-name="Oslashacute" unicode="&#x1fe;" horiz-adv-x="1566" 
d="M1228 1888l-325 -306h-230l297 306h258zM1133 1105l-609 -838q110 -93 272 -93q205 0 324 148.5t119 399.5q0 236 -106 383zM442 362l605 830q-105 77 -251 77q-204 0 -324.5 -148t-120.5 -399q0 -217 91 -360zM1370 1432l-100 -138q198 -204 198 -572q0 -349 -180 -553
t-492 -204q-236 0 -404 121l-103 -142l-101 71l113 155q-179 202 -179 552q0 349 181.5 552.5t492.5 203.5q223 0 382 -107l91 125z" />
    <glyph glyph-name="oslashacute" unicode="&#x1ff;" horiz-adv-x="1231" 
d="M970 1615l-281 -344h-222l251 344h252zM849 795l-383 -586q63 -39 150 -39q139 0 215.5 98.5t76.5 276.5q0 156 -59 250zM379 300l383 582q-63 37 -146 37q-140 0 -216 -98t-76 -276q0 -152 55 -245zM1035 1080l-65 -99q159 -153 159 -436q0 -264 -137 -415t-376 -151
q-147 0 -261 60l-60 -92l-104 67l65 99q-154 151 -154 432q0 263 137.5 414t376.5 151q147 0 257 -59l60 91z" />
    <glyph glyph-name="Adblgrave" unicode="&#x200;" horiz-adv-x="1423" 
d="M1115 0l-132 383h-550l-133 -383h-230l521 1443h241l521 -1443h-238zM700 1181l-210 -610h436l-209 610h-17zM826 1582l-312 306h242l289 -306h-219zM404 1582l-312 306h241l289 -306h-218z" />
    <glyph glyph-name="adblgrave" unicode="&#x201;" horiz-adv-x="1158" 
d="M512 163q121 0 201.5 68t80.5 170v91l-266 -17q-112 -7 -165 -46t-53 -111t56 -113.5t146 -41.5zM457 -18q-160 0 -261.5 89.5t-101.5 236.5q0 146 105 229.5t300 95.5l295 17v94q0 87 -57 133.5t-166 46.5q-90 0 -149.5 -31.5t-77.5 -89.5h-208q16 140 137.5 223.5
t307.5 83.5q204 0 315.5 -96.5t111.5 -269.5v-744h-207v153h-17q-49 -82 -134.5 -126.5t-192.5 -44.5zM499 1271h-200l-266 344h228zM912 1271h-200l-266 344h228z" />
    <glyph glyph-name="Ainvertedbreve" unicode="&#x202;" horiz-adv-x="1423" 
d="M1115 0l-132 383h-550l-133 -383h-230l521 1443h241l521 -1443h-238zM700 1181l-210 -610h436l-209 610h-17zM335 1577q0 142 101.5 228t275.5 86t275.5 -86t101.5 -228h-173q-1 78 -56 123.5t-148 45.5t-148 -45.5t-56 -123.5h-173z" />
    <glyph glyph-name="ainvertedbreve" unicode="&#x203;" horiz-adv-x="1158" 
d="M512 163q121 0 201.5 68t80.5 170v91l-266 -17q-112 -7 -165 -46t-53 -111t56 -113.5t146 -41.5zM457 -18q-160 0 -261.5 89.5t-101.5 236.5q0 146 105 229.5t300 95.5l295 17v94q0 87 -57 133.5t-166 46.5q-90 0 -149.5 -31.5t-77.5 -89.5h-208q16 140 137.5 223.5
t307.5 83.5q204 0 315.5 -96.5t111.5 -269.5v-744h-207v153h-17q-49 -82 -134.5 -126.5t-192.5 -44.5zM204 1238q0 150 102 244t275 94t275 -94t102 -244h-173q-1 85 -55 137.5t-149 52.5t-149 -52.5t-55 -137.5h-173z" />
    <glyph glyph-name="Edblgrave" unicode="&#x204;" horiz-adv-x="1239" 
d="M753 1582l-312 306h242l289 -306h-219zM331 1582l-312 306h241l289 -306h-218zM1097 204v-204h-916v1443h916v-204h-692v-408h655v-194h-655v-433h692z" />
    <glyph glyph-name="edblgrave" unicode="&#x205;" horiz-adv-x="1192" 
d="M603 927q-119 0 -196 -77t-86 -205h550q-4 129 -76.5 205.5t-191.5 76.5zM870 294h207q-37 -147 -161.5 -231t-310.5 -84q-234 0 -368.5 150.5t-134.5 411.5t136 415t366 154q227 0 356.5 -146t129.5 -403v-75h-769v-12q5 -144 83 -228t207 -84q197 0 259 132zM522 1271
h-200l-266 344h228zM935 1271h-200l-266 344h228z" />
    <glyph glyph-name="Einvertedbreve" unicode="&#x206;" horiz-adv-x="1239" 
d="M1097 204v-204h-916v1443h916v-204h-692v-408h655v-194h-655v-433h692zM262 1577q0 142 101.5 228t275.5 86t275.5 -86t101.5 -228h-173q-1 78 -56 123.5t-148 45.5t-148 -45.5t-56 -123.5h-173z" />
    <glyph glyph-name="einvertedbreve" unicode="&#x207;" horiz-adv-x="1192" 
d="M603 927q-119 0 -196 -77t-86 -205h550q-4 129 -76.5 205.5t-191.5 76.5zM870 294h207q-37 -147 -161.5 -231t-310.5 -84q-234 0 -368.5 150.5t-134.5 411.5t136 415t366 154q227 0 356.5 -146t129.5 -403v-75h-769v-12q5 -144 83 -228t207 -84q197 0 259 132zM227 1238
q0 150 102 244t275 94t275 -94t102 -244h-173q-1 85 -55 137.5t-149 52.5t-149 -52.5t-55 -137.5h-173z" />
    <glyph glyph-name="Idblgrave" unicode="&#x208;" horiz-adv-x="585" 
d="M405 0h-224v1443h224v-1443zM407 1582l-312 306h242l289 -306h-219zM-15 1582l-312 306h241l289 -306h-218z" />
    <glyph glyph-name="idblgrave" unicode="&#x209;" horiz-adv-x="534" 
d="M160 0v1089h214v-1089h-214zM185 1271h-200l-266 344h228zM598 1271h-200l-266 344h228z" />
    <glyph glyph-name="Iinvertedbreve" unicode="&#x20a;" horiz-adv-x="585" 
d="M405 0h-224v1443h224v-1443zM-84 1577q0 142 101.5 228t275.5 86t275.5 -86t101.5 -228h-173q-1 78 -56 123.5t-148 45.5t-148 -45.5t-56 -123.5h-173z" />
    <glyph glyph-name="iinvertedbreve" unicode="&#x20b;" horiz-adv-x="534" 
d="M160 0v1089h214v-1089h-214zM-110 1238q0 150 102 244t275 94t275 -94t102 -244h-173q-1 85 -55 137.5t-149 52.5t-149 -52.5t-55 -137.5h-173z" />
    <glyph glyph-name="Odblgrave" unicode="&#x20c;" horiz-adv-x="1590" 
d="M910 1582l-312 306h242l289 -306h-219zM488 1582l-312 306h241l289 -306h-218zM796 1478q312 0 492 -203.5t180 -552.5t-180 -553t-492 -204q-313 0 -493.5 203.5t-180.5 553.5q0 349 181.5 552.5t492.5 203.5zM796 1269q-204 0 -324.5 -148t-120.5 -399t119 -399.5
t326 -148.5q205 0 324 148.5t119 399.5q0 252 -119 399.5t-324 147.5z" />
    <glyph glyph-name="odblgrave" unicode="&#x20d;" horiz-adv-x="1231" 
d="M616 -21q-240 0 -377 151t-137 415q0 263 137.5 414t376.5 151q238 0 375.5 -151t137.5 -414q0 -264 -137 -415t-376 -151zM616 170q139 0 215.5 98.5t76.5 276.5q0 177 -76.5 275.5t-215.5 98.5q-140 0 -216 -98t-76 -276q0 -179 76 -277t216 -98zM534 1271h-200
l-266 344h228zM947 1271h-200l-266 344h228z" />
    <glyph glyph-name="Oinvertedbreve" unicode="&#x20e;" horiz-adv-x="1590" 
d="M419 1577q0 142 101.5 228t275.5 86t275.5 -86t101.5 -228h-173q-1 78 -56 123.5t-148 45.5t-148 -45.5t-56 -123.5h-173zM796 1478q312 0 492 -203.5t180 -552.5t-180 -553t-492 -204q-313 0 -493.5 203.5t-180.5 553.5q0 349 181.5 552.5t492.5 203.5zM796 1269
q-204 0 -324.5 -148t-120.5 -399t119 -399.5t326 -148.5q205 0 324 148.5t119 399.5q0 252 -119 399.5t-324 147.5z" />
    <glyph glyph-name="oinvertedbreve" unicode="&#x20f;" horiz-adv-x="1231" 
d="M616 -21q-240 0 -377 151t-137 415q0 263 137.5 414t376.5 151q238 0 375.5 -151t137.5 -414q0 -264 -137 -415t-376 -151zM616 170q139 0 215.5 98.5t76.5 276.5q0 177 -76.5 275.5t-215.5 98.5q-140 0 -216 -98t-76 -276q0 -179 76 -277t216 -98zM239 1238
q0 150 102 244t275 94t275 -94t102 -244h-173q-1 85 -55 137.5t-149 52.5t-149 -52.5t-55 -137.5h-173z" />
    <glyph glyph-name="Rdblgrave" unicode="&#x210;" horiz-adv-x="1368" 
d="M738 1582l-312 306h242l289 -306h-219zM316 1582l-312 306h241l289 -306h-218zM405 1246v-505h322q130 0 201.5 66t71.5 187q0 118 -74.5 185t-204.5 67h-316zM405 550v-550h-224v1443h571q218 0 348 -120.5t130 -323.5q0 -146 -74.5 -256.5t-205.5 -155.5l324 -587h-259
l-294 550h-316z" />
    <glyph glyph-name="rdblgrave" unicode="&#x211;" horiz-adv-x="820" 
d="M156 0v1089h207v-167h16q23 81 105.5 133t188.5 52q61 0 96 -9v-212q-39 13 -120 13q-123 0 -200.5 -71t-77.5 -185v-643h-215zM321 1271h-200l-266 344h228zM734 1271h-200l-266 344h228z" />
    <glyph glyph-name="Rinvertedbreve" unicode="&#x212;" horiz-adv-x="1368" 
d="M405 1246v-505h322q130 0 201.5 66t71.5 187q0 118 -74.5 185t-204.5 67h-316zM405 550v-550h-224v1443h571q218 0 348 -120.5t130 -323.5q0 -146 -74.5 -256.5t-205.5 -155.5l324 -587h-259l-294 550h-316zM247 1577q0 142 101.5 228t275.5 86t275.5 -86t101.5 -228
h-173q-1 78 -56 123.5t-148 45.5t-148 -45.5t-56 -123.5h-173z" />
    <glyph glyph-name="rinvertedbreve" unicode="&#x213;" horiz-adv-x="820" 
d="M156 0v1089h207v-167h16q23 81 105.5 133t188.5 52q61 0 96 -9v-212q-39 13 -120 13q-123 0 -200.5 -71t-77.5 -185v-643h-215zM26 1238q0 150 102 244t275 94t275 -94t102 -244h-173q-1 85 -55 137.5t-149 52.5t-149 -52.5t-55 -137.5h-173z" />
    <glyph glyph-name="Udblgrave" unicode="&#x214;" horiz-adv-x="1539" 
d="M883 1582l-312 306h242l289 -306h-219zM461 1582l-312 306h241l289 -306h-218zM409 1443v-926q0 -154 95.5 -248t264.5 -94q170 0 265.5 94t95.5 248v926h224v-946q0 -238 -158.5 -385t-426.5 -147t-426 147t-158 385v946h224z" />
    <glyph glyph-name="udblgrave" unicode="&#x215;" horiz-adv-x="1230" 
d="M1074 1089v-1089h-207v173h-17q-83 -194 -329 -194q-180 0 -277.5 105t-97.5 298v707h215v-651q0 -133 55.5 -196.5t173.5 -63.5q129 0 199 72.5t70 201.5v637h215zM528 1271h-200l-266 344h228zM941 1271h-200l-266 344h228z" />
    <glyph glyph-name="Uinvertedbreve" unicode="&#x216;" horiz-adv-x="1539" 
d="M409 1443v-926q0 -154 95.5 -248t264.5 -94q170 0 265.5 94t95.5 248v926h224v-946q0 -238 -158.5 -385t-426.5 -147t-426 147t-158 385v946h224zM392 1577q0 142 101.5 228t275.5 86t275.5 -86t101.5 -228h-173q-1 78 -56 123.5t-148 45.5t-148 -45.5t-56 -123.5h-173z
" />
    <glyph glyph-name="uinvertedbreve" unicode="&#x217;" horiz-adv-x="1230" 
d="M1074 1089v-1089h-207v173h-17q-83 -194 -329 -194q-180 0 -277.5 105t-97.5 298v707h215v-651q0 -133 55.5 -196.5t173.5 -63.5q129 0 199 72.5t70 201.5v637h215zM233 1238q0 150 102 244t275 94t275 -94t102 -244h-173q-1 85 -55 137.5t-149 52.5t-149 -52.5
t-55 -137.5h-173z" />
    <glyph glyph-name="Scommaaccent" unicode="&#x218;" horiz-adv-x="1333" 
d="M113 388h222q14 -103 107.5 -163.5t238.5 -60.5q135 0 223.5 62.5t88.5 158.5q0 82 -65.5 134.5t-209.5 86.5l-186 45q-196 46 -288 143t-92 256q0 193 144.5 310.5t380.5 117.5q220 0 365 -116t155 -298h-218q-16 100 -97.5 158t-207.5 58q-133 0 -214 -59t-81 -156
q0 -77 61.5 -125t202.5 -81l159 -39q222 -52 320 -147.5t98 -258.5q0 -207 -150 -328t-406 -121q-240 0 -389.5 115t-161.5 308zM664 -514h-200l113 368h222z" />
    <glyph glyph-name="scommaaccent" unicode="&#x219;" horiz-adv-x="1104" 
d="M131 781q0 144 119 236.5t304 92.5q184 0 297 -81t129 -225h-206q-15 61 -72.5 96t-147.5 35q-91 0 -151 -39.5t-60 -102.5q0 -49 42 -81t131 -52l181 -42q157 -36 230.5 -107t73.5 -190q0 -152 -127 -247t-324 -95q-194 0 -313.5 82.5t-133.5 227.5h215q21 -64 81 -100
t156 -36q101 0 165 41t64 106q0 95 -160 133l-190 44q-156 37 -229.5 110t-73.5 194zM550 -514h-200l113 368h222z" />
    <glyph glyph-name="Tcommaaccent" unicode="&#x21a;" horiz-adv-x="1317" 
d="M658 -514h-200l113 368h222zM771 0h-224v1239h-454v204h1131v-204h-453v-1239z" />
    <glyph glyph-name="tcommaaccent" unicode="&#x21b;" horiz-adv-x="780" 
d="M440 -514h-200l113 368h222zM232 1360h215v-276h236v-181h-236v-560q0 -85 37 -124.5t117 -39.5q32 0 82 5v-179q-64 -11 -117 -11q-179 0 -256.5 68t-77.5 226v615h-173v181h173v276z" />
    <glyph glyph-name="Hcaron" unicode="&#x21e;" horiz-adv-x="1550" 
d="M1369 0h-223v633h-741v-633h-224v1443h224v-606h741v606h223v-1443zM677 1582l-293 306h220l162 -175h18l162 175h220l-293 -306h-196z" />
    <glyph glyph-name="hcaron" unicode="&#x21f;" horiz-adv-x="1249" 
d="M166 0v1514h213v-600h17q40 93 125.5 144t206.5 51q175 0 275 -106.5t100 -299.5v-703h-215v650q0 130 -59 196t-174 66q-130 0 -202 -75t-72 -201v-636h-215zM175 1653l-293 306h220l162 -175h18l162 175h220l-293 -306h-196z" />
    <glyph glyph-name="Adotaccent" unicode="&#x226;" horiz-adv-x="1423" 
d="M1115 0l-132 383h-550l-133 -383h-230l521 1443h241l521 -1443h-238zM700 1181l-210 -610h436l-209 610h-17zM712 1577q-57 0 -95.5 39.5t-38.5 97.5t38.5 97.5t95.5 39.5t95.5 -39.5t38.5 -97.5t-38.5 -97.5t-95.5 -39.5z" />
    <glyph glyph-name="adotaccent" unicode="&#x227;" horiz-adv-x="1158" 
d="M512 163q121 0 201.5 68t80.5 170v91l-266 -17q-112 -7 -165 -46t-53 -111t56 -113.5t146 -41.5zM457 -18q-160 0 -261.5 89.5t-101.5 236.5q0 146 105 229.5t300 95.5l295 17v94q0 87 -57 133.5t-166 46.5q-90 0 -149.5 -31.5t-77.5 -89.5h-208q16 140 137.5 223.5
t307.5 83.5q204 0 315.5 -96.5t111.5 -269.5v-744h-207v153h-17q-49 -82 -134.5 -126.5t-192.5 -44.5zM581 1283q-59 0 -99.5 41.5t-40.5 100.5t40.5 100.5t99.5 41.5q58 0 99 -41.5t41 -100.5t-41 -100.5t-99 -41.5z" />
    <glyph glyph-name="Ecedilla" unicode="&#x228;" horiz-adv-x="1239" 
d="M1097 1239h-692v-408h655v-194h-655v-433h692v-204h-376l-48 -122q99 -2 153.5 -46t54.5 -123q0 -89 -67 -142t-185 -53q-85 0 -147 17v120q46 -14 120 -14q116 0 116 67q0 32 -33 46.5t-109 14.5h-59v97l58 138h-394v1443h916v-204z" />
    <glyph glyph-name="ecedilla" unicode="&#x229;" horiz-adv-x="1192" 
d="M321 645h550q-4 129 -76.5 205.5t-191.5 76.5t-196 -77t-86 -205zM1090 486h-769v-12q5 -144 83 -228t207 -84q197 0 259 132h207q-33 -131 -137 -213t-259 -98l-41 -105q99 -2 153.5 -46t54.5 -123q0 -89 -67 -142t-185 -53q-85 0 -147 17v120q46 -14 120 -14
q116 0 116 67q0 32 -33 46.5t-109 14.5h-59v97l51 121q-203 23 -318 170.5t-115 387.5q0 261 136 415t366 154q227 0 356.5 -146t129.5 -403v-75z" />
    <glyph glyph-name="Odieresismacron" unicode="&#x22a;" horiz-adv-x="1590" 
d="M796 1478q312 0 492 -203.5t180 -552.5t-180 -553t-492 -204q-313 0 -493.5 203.5t-180.5 553.5q0 349 181.5 552.5t492.5 203.5zM796 1269q-204 0 -324.5 -148t-120.5 -399t119 -399.5t326 -148.5q205 0 324 148.5t119 399.5q0 252 -119 399.5t-324 147.5zM582 1840
q55 0 92.5 -38t37.5 -94t-37.5 -93.5t-92.5 -37.5t-92.5 38t-37.5 93q0 56 37.5 94t92.5 38zM446 2107h700v-147h-700v147zM1010 1840q55 0 92.5 -38t37.5 -94q0 -55 -37.5 -93t-92.5 -38t-92.5 37.5t-37.5 93.5t37.5 94t92.5 38z" />
    <glyph glyph-name="odieresismacron" unicode="&#x22b;" horiz-adv-x="1231" 
d="M407 1238q-54 0 -90.5 37.5t-36.5 91.5q0 55 36.5 92.5t90.5 37.5t90.5 -37.5t36.5 -92.5q0 -54 -36.5 -91.5t-90.5 -37.5zM825 1238q-54 0 -90.5 37.5t-36.5 91.5q0 55 36.5 92.5t90.5 37.5t90.5 -37.5t36.5 -92.5q0 -54 -36.5 -91.5t-90.5 -37.5zM964 1800v-155h-696
v155h696zM616 -21q-240 0 -377 151t-137 415q0 263 137.5 414t376.5 151q238 0 375.5 -151t137.5 -414q0 -264 -137 -415t-376 -151zM616 170q139 0 215.5 98.5t76.5 276.5q0 177 -76.5 275.5t-215.5 98.5q-140 0 -216 -98t-76 -276q0 -179 76 -277t216 -98z" />
    <glyph glyph-name="Otildemacron" unicode="&#x22c;" horiz-adv-x="1590" 
d="M941 1577q-46 0 -82.5 13t-59 31.5t-42 36.5t-43.5 31t-52 13q-86 0 -91 -111h-153q0 118 64.5 189t168.5 71q46 0 82.5 -13t59 -31.5t42 -36.5t43.5 -31t52 -13q38 0 63 27t29 82h152q0 -113 -65 -185.5t-168 -72.5zM1146 2107v-151h-700v151h700zM796 1478
q312 0 492 -203.5t180 -552.5t-180 -553t-492 -204q-313 0 -493.5 203.5t-180.5 553.5q0 349 181.5 552.5t492.5 203.5zM796 1269q-204 0 -324.5 -148t-120.5 -399t119 -399.5t326 -148.5q205 0 324 148.5t119 399.5q0 252 -119 399.5t-324 147.5z" />
    <glyph glyph-name="otildemacron" unicode="&#x22d;" horiz-adv-x="1231" 
d="M760 1241q-44 0 -81.5 15.5t-63.5 37.5t-48 44.5t-45 38t-44 15.5q-49 0 -71.5 -36t-22.5 -114h-158q0 140 65 222t177 82q44 0 81.5 -15.5t63.5 -38t48 -44.5t45 -37.5t44 -15.5q49 0 71.5 35t22.5 113h158q0 -140 -65 -221t-177 -81zM964 1805v-155h-696v155h696z
M616 -21q-240 0 -377 151t-137 415q0 263 137.5 414t376.5 151q238 0 375.5 -151t137.5 -414q0 -264 -137 -415t-376 -151zM616 170q139 0 215.5 98.5t76.5 276.5q0 177 -76.5 275.5t-215.5 98.5q-140 0 -216 -98t-76 -276q0 -179 76 -277t216 -98z" />
    <glyph glyph-name="Odotaccent" unicode="&#x22e;" horiz-adv-x="1590" 
d="M796 1577q-57 0 -95.5 39.5t-38.5 97.5t38.5 97.5t95.5 39.5t95.5 -39.5t38.5 -97.5t-38.5 -97.5t-95.5 -39.5zM796 1478q312 0 492 -203.5t180 -552.5t-180 -553t-492 -204q-313 0 -493.5 203.5t-180.5 553.5q0 349 181.5 552.5t492.5 203.5zM796 1269
q-204 0 -324.5 -148t-120.5 -399t119 -399.5t326 -148.5q205 0 324 148.5t119 399.5q0 252 -119 399.5t-324 147.5z" />
    <glyph glyph-name="odotaccent" unicode="&#x22f;" horiz-adv-x="1231" 
d="M616 1283q-59 0 -99.5 41.5t-40.5 100.5t40.5 100.5t99.5 41.5q58 0 99 -41.5t41 -100.5t-41 -100.5t-99 -41.5zM616 -21q-240 0 -377 151t-137 415q0 263 137.5 414t376.5 151q238 0 375.5 -151t137.5 -414q0 -264 -137 -415t-376 -151zM616 170q139 0 215.5 98.5
t76.5 276.5q0 177 -76.5 275.5t-215.5 98.5q-140 0 -216 -98t-76 -276q0 -179 76 -277t216 -98z" />
    <glyph glyph-name="Odotaccentmacron" unicode="&#x230;" horiz-adv-x="1590" 
d="M796 1576q-56 0 -94 38t-38 94t38 94t94 38t94 -38t38 -94t-38 -94t-94 -38zM1146 2107v-147h-700v147h700zM796 1478q312 0 492 -203.5t180 -552.5t-180 -553t-492 -204q-313 0 -493.5 203.5t-180.5 553.5q0 349 181.5 552.5t492.5 203.5zM796 1269q-204 0 -324.5 -148
t-120.5 -399t119 -399.5t326 -148.5q205 0 324 148.5t119 399.5q0 252 -119 399.5t-324 147.5z" />
    <glyph glyph-name="odotaccentmacron" unicode="&#x231;" horiz-adv-x="1231" 
d="M616 -21q-240 0 -377 151t-137 415q0 263 137.5 414t376.5 151q238 0 375.5 -151t137.5 -414q0 -264 -137 -415t-376 -151zM616 170q139 0 215.5 98.5t76.5 276.5q0 177 -76.5 275.5t-215.5 98.5q-140 0 -216 -98t-76 -276q0 -179 76 -277t216 -98zM616 1238
q-56 0 -93 38t-37 94q0 57 37 95t93 38t93 -38t37 -95q0 -56 -37 -94t-93 -38zM964 1800v-155h-696v155h696z" />
    <glyph glyph-name="Ymacron" unicode="&#x232;" horiz-adv-x="1383" 
d="M803 0h-224v582l-508 861h249l363 -625h17l363 625h249l-509 -861v-582zM1041 1781v-156h-700v156h700z" />
    <glyph glyph-name="ymacron" unicode="&#x233;" horiz-adv-x="1152" 
d="M264 -395q-56 0 -89 5v185q23 -4 70 -4q77 0 123 35t74 117l16 53l-394 1093h234l273 -865h17l272 865h228l-406 -1134q-70 -198 -160.5 -274t-257.5 -76zM922 1454v-155h-696v155h696z" />
    <glyph glyph-name="dotlessj" unicode="&#x237;" horiz-adv-x="534" 
d="M374 1089v-1134q0 -167 -86.5 -247t-264.5 -80q-43 0 -48 1v180h30q85 0 120 34t35 114v1132h214z" />
    <glyph glyph-name="quoteright" unicode="&#x2019;" horiz-adv-x="621" 
d="M321 872h-185l127 571h222z" />
    <glyph glyph-name="quoteright" unicode="&#x2bc;" horiz-adv-x="621" 
d="M321 872h-185l127 571h222z" />
    <glyph glyph-name="circumflex" unicode="&#x2c6;" horiz-adv-x="1096" 
d="M665 1584l279 -346h-221l-167 219h-16l-167 -219h-222l280 346h234z" />
    <glyph glyph-name="caron" unicode="&#x2c7;" horiz-adv-x="1096" 
d="M665 1238h-234l-280 346h222l167 -219h16l167 219h221z" />
    <glyph glyph-name="breve" unicode="&#x2d8;" horiz-adv-x="1048" 
d="M147 1576h173q1 -85 55 -137.5t149 -52.5t149 52.5t55 137.5h173q0 -150 -102 -244t-275 -94t-275 94t-102 244z" />
    <glyph glyph-name="dotaccent" unicode="&#x2d9;" horiz-adv-x="1048" 
d="M524 1283q-59 0 -99.5 41.5t-40.5 100.5t40.5 100.5t99.5 41.5q58 0 99 -41.5t41 -100.5t-41 -100.5t-99 -41.5z" />
    <glyph glyph-name="ring" unicode="&#x2da;" horiz-adv-x="1096" 
d="M548 1238q-99 0 -168 67.5t-69 166.5t68.5 166t168.5 67t168.5 -67t68.5 -166t-69 -166.5t-168 -67.5zM548 1357q50 0 83 32.5t33 82.5q0 49 -33 81.5t-83 32.5t-83 -32.5t-33 -81.5q0 -50 33 -82.5t83 -32.5z" />
    <glyph glyph-name="ogonek" unicode="&#x2db;" horiz-adv-x="1048" 
d="M712 -285v-141q-52 -21 -123 -21q-110 0 -175.5 53.5t-65.5 144.5q0 68 42.5 129.5t144.5 135.5h177q-106 -77 -148 -125.5t-42 -96.5q0 -41 31 -64.5t86 -23.5q46 0 73 9z" />
    <glyph glyph-name="tilde" unicode="&#x2dc;" horiz-adv-x="1095" 
d="M693 1265q-44 0 -81.5 15.5t-63.5 37.5t-48 44.5t-45 38t-44 15.5q-49 0 -71.5 -36t-22.5 -114h-158q0 140 65 222t177 82q44 0 81.5 -15.5t63.5 -38t48 -44.5t45 -37.5t44 -15.5q49 0 71.5 35t22.5 113h158q0 -140 -65 -221t-177 -81z" />
    <glyph glyph-name="hungarumlaut" unicode="&#x2dd;" horiz-adv-x="1048" 
d="M491 1271l238 344h228l-267 -344h-199zM78 1271l238 344h228l-267 -344h-199z" />
    <glyph glyph-name="gravecmb" unicode="&#x300;" horiz-adv-x="0" 
d="M135 1271h-221l-282 344h252z" />
    <glyph glyph-name="acutecmb" unicode="&#x301;" horiz-adv-x="0" 
d="M93 1271h-222l251 344h252z" />
    <glyph glyph-name="circumflexcmb" unicode="&#x302;" horiz-adv-x="0" 
d="M117 1584l279 -346h-221l-167 219h-16l-167 -219h-222l280 346h234z" />
    <glyph glyph-name="tildecmb" unicode="&#x303;" horiz-adv-x="0" 
d="M148 1241q-44 0 -81.5 15.5t-63.5 37.5t-48 44.5t-45 38t-44 15.5q-49 0 -71.5 -36t-22.5 -114h-158q0 140 65 222t177 82q44 0 81.5 -15.5t63.5 -38t48 -44.5t45 -37.5t44 -15.5q49 0 71.5 35t22.5 113h158q0 -140 -65 -221t-177 -81z" />
    <glyph glyph-name="macroncmb" unicode="&#x304;" horiz-adv-x="0" 
d="M348 1454v-155h-696v155h696z" />
    <glyph glyph-name="brevecmb" unicode="&#x306;" horiz-adv-x="0" 
d="M-379 1576h173q1 -85 55 -137.5t149 -52.5t149 52.5t55 137.5h173q0 -150 -102 -244t-275 -94t-275 94t-102 244z" />
    <glyph glyph-name="dotaccentcmb" unicode="&#x307;" horiz-adv-x="0" 
d="M0 1283q-59 0 -99.5 41.5t-40.5 100.5t40.5 100.5t99.5 41.5q58 0 99 -41.5t41 -100.5t-41 -100.5t-99 -41.5z" />
    <glyph glyph-name="dieresiscmb" unicode="&#x308;" horiz-adv-x="0" 
d="M-213 1238q-57 0 -95.5 38.5t-38.5 95.5t38.5 96t95.5 39q56 0 94.5 -39t38.5 -96t-38.5 -95.5t-94.5 -38.5zM214 1238q-56 0 -95 38.5t-39 95.5t39 96t95 39t94.5 -39t38.5 -96t-38.5 -95.5t-94.5 -38.5z" />
    <glyph glyph-name="hookabovecmb" unicode="&#x309;" horiz-adv-x="0" 
d="M-156 1471v137q58 23 142 23q108 0 172 -53t64 -143q0 -75 -52.5 -138t-138.5 -94l-82 106q49 16 80 45.5t31 61.5q0 33 -29 54.5t-75 21.5q-70 0 -112 -21z" />
    <glyph glyph-name="ringcmb" unicode="&#x30a;" horiz-adv-x="0" 
d="M0 1238q-99 0 -168 67.5t-69 166.5t68.5 166t168.5 67t168.5 -67t68.5 -166t-69 -166.5t-168 -67.5zM0 1357q50 0 83 32.5t33 82.5q0 49 -33 81.5t-83 32.5t-83 -32.5t-33 -81.5q0 -50 33 -82.5t83 -32.5z" />
    <glyph glyph-name="hungarumlautcmb" unicode="&#x30b;" horiz-adv-x="0" 
d="M69 1271l238 344h228l-267 -344h-199zM-344 1271l238 344h228l-267 -344h-199z" />
    <glyph glyph-name="caroncmb" unicode="&#x30c;" horiz-adv-x="0" 
d="M117 1238h-234l-280 346h222l167 -219h16l167 219h221z" />
    <glyph glyph-name="dblgravecmb" unicode="&#x30f;" horiz-adv-x="0" 
d="M-82 1271h-200l-266 344h228zM331 1271h-200l-266 344h228z" />
    <glyph glyph-name="invertedbrevecmb" unicode="&#x311;" horiz-adv-x="0" 
d="M-377 1238q0 150 102 244t275 94t275 -94t102 -244h-173q-1 85 -55 137.5t-149 52.5t-149 -52.5t-55 -137.5h-173z" />
    <glyph glyph-name="horncmb" unicode="&#x31b;" horiz-adv-x="0" 
d="M0 945v169q36 -33 92 -33q57 2 82 37.5t25 114.5v157h185v-209q0 -123 -68.5 -198t-180.5 -75q-84 0 -135 37z" />
    <glyph glyph-name="dotbelowcmb" unicode="&#x323;" horiz-adv-x="0" 
d="M0 -416q-57 0 -95.5 39.5t-38.5 97.5t38.5 97.5t95.5 39.5t95.5 -39.5t38.5 -97.5t-38.5 -97.5t-95.5 -39.5z" />
    <glyph glyph-name="dieresisbelowcmb" unicode="&#x324;" horiz-adv-x="0" 
d="M-213 -438q-57 0 -95.5 38.5t-38.5 95.5t38.5 96t95.5 39q56 0 94.5 -39t38.5 -96t-38.5 -95.5t-94.5 -38.5zM214 -438q-56 0 -95 38.5t-39 95.5t39 96t95 39t94.5 -39t38.5 -96t-38.5 -95.5t-94.5 -38.5z" />
    <glyph glyph-name="ringbelowcmb" unicode="&#x325;" horiz-adv-x="0" 
d="M0 -572q-99 0 -168 67.5t-69 166.5t68.5 166t168.5 67t168.5 -67t68.5 -166t-69 -166.5t-168 -67.5zM0 -453q50 0 83 32.5t33 82.5q0 49 -33 81.5t-83 32.5t-83 -32.5t-33 -81.5q0 -50 33 -82.5t83 -32.5z" />
    <glyph glyph-name="commabelowcmb" unicode="&#x326;" horiz-adv-x="0" 
d="M0 -514h-200l113 368h222z" />
    <glyph glyph-name="cedillacmb" unicode="&#x327;" horiz-adv-x="0" 
d="M-122 -235v97l68 162h136v-24l-48 -122q99 -2 153.5 -46t54.5 -123q0 -89 -67 -142t-185 -53q-85 0 -147 17v120q46 -14 120 -14q116 0 116 67q0 32 -33 46.5t-109 14.5h-59z" />
    <glyph glyph-name="ogonekcmb" unicode="&#x328;" horiz-adv-x="0" 
d="M134 -286v-141q-52 -21 -123 -21q-110 0 -175.5 53.5t-65.5 144.5q0 68 42.5 129.5t144.5 135.5h177q-106 -77 -148 -125.5t-42 -96.5q0 -41 31 -64.5t86 -23.5q46 0 73 9z" />
    <glyph glyph-name="circumflexbelowcmb" unicode="&#x32d;" horiz-adv-x="0" 
d="M-101 -136h202l295 -314h-225l-163 181h-16l-163 -181h-225z" />
    <glyph glyph-name="brevebelowcmb" unicode="&#x32e;" horiz-adv-x="0" 
d="M-377 -121h173q1 -78 56 -123.5t148 -45.5t148 45.5t56 123.5h173q0 -142 -101.5 -228t-275.5 -86t-275.5 86t-101.5 228z" />
    <glyph glyph-name="tildebelowcmb" unicode="&#x330;" horiz-adv-x="0" 
d="M146 -425q-44 0 -81.5 15.5t-63.5 37.5t-48 44.5t-45 38t-44 15.5q-49 0 -71.5 -36t-22.5 -114h-158q0 140 65 222t177 82q44 0 81.5 -15.5t63.5 -38t48 -44.5t45 -37.5t44 -15.5q49 0 71.5 35t22.5 113h158q0 -140 -65 -221t-177 -81z" />
    <glyph glyph-name="macronbelowcmb" unicode="&#x331;" horiz-adv-x="0" 
d="M350 -216v-156h-700v156h700z" />
    <glyph glyph-name="greekquestionmark" unicode="&#x37e;" horiz-adv-x="645" 
d="M323 738q-63 0 -105 43t-42 106q0 64 42 106.5t105 42.5q64 0 105.5 -42.5t41.5 -106.5q0 -63 -42 -106t-105 -43zM300 -376h-180l90 598h233z" />
    <glyph glyph-name="tonosgreek" unicode="&#x384;" horiz-adv-x="918" 
d="M276 1265l87 355h239l-138 -355h-188z" />
    <glyph glyph-name="dieresistonosgreek" unicode="&#x385;" horiz-adv-x="1384" 
d="M344 1265q-55 0 -92.5 37.5t-37.5 92.5t37.5 92t92.5 37t92.5 -37t37.5 -92t-37.5 -92.5t-92.5 -37.5zM1040 1265q-55 0 -92 37.5t-37 92.5t37 92t92 37t92.5 -37t37.5 -92t-37 -92.5t-93 -37.5zM576 1265l33 355h224l-84 -355h-173z" />
    <glyph glyph-name="Alphatonosgreek" unicode="&#x386;" horiz-adv-x="1447" 
d="M1139 0l-132 383h-550l-133 -383h-230l521 1443h241l521 -1443h-238zM724 1181l-210 -610h436l-209 610h-17zM83 1087l87 356h239l-138 -356h-188z" />
    <glyph glyph-name="anoteleia" unicode="&#x387;" horiz-adv-x="645" 
d="M323 396q-63 0 -105 43t-42 106t42 106t105 43t105 -43t42 -106t-42 -106t-105 -43z" />
    <glyph glyph-name="Epsilontonosgreek" unicode="&#x388;" horiz-adv-x="1652" 
d="M94 1087l87 356h239l-138 -356h-188zM1510 204v-204h-916v1443h916v-204h-692v-408h655v-194h-655v-433h692z" />
    <glyph glyph-name="Etatonosgreek" unicode="&#x389;" horiz-adv-x="1963" 
d="M94 1087l87 356h239l-138 -356h-188zM1782 0h-223v633h-741v-633h-224v1443h224v-606h741v606h223v-1443z" />
    <glyph glyph-name="Iotatonosgreek" unicode="&#x38a;" horiz-adv-x="998" 
d="M818 0h-224v1443h224v-1443zM94 1087l87 356h239l-138 -356h-188z" />
    <glyph glyph-name="Omicrontonosgreek" unicode="&#x38c;" horiz-adv-x="1873" 
d="M1078 1478q312 0 492 -203.5t180 -552.5t-180 -553t-492 -204q-313 0 -493.5 203.5t-180.5 553.5q0 349 181.5 552.5t492.5 203.5zM1078 1269q-204 0 -324.5 -148t-120.5 -399t119 -399.5t326 -148.5q205 0 324 148.5t119 399.5q0 252 -119 399.5t-324 147.5zM94 1087
l87 356h239l-138 -356h-188z" />
    <glyph glyph-name="Upsilontonosgreek" unicode="&#x38e;" horiz-adv-x="1805" 
d="M94 1087l87 356h239l-138 -356h-188zM1225 0h-224v582l-508 861h249l363 -625h17l363 625h249l-509 -861v-582z" />
    <glyph glyph-name="Omegatonosgreek" unicode="&#x38f;" horiz-adv-x="1893" 
d="M1538 790q0 222 -119.5 350.5t-327.5 128.5q-207 0 -326.5 -128.5t-119.5 -350.5q0 -179 77.5 -310.5t239.5 -227.5v-252h-544v199h300v17q-142 87 -221 242.5t-79 344.5q0 199 84 352.5t237.5 238t351.5 84.5q301 0 487.5 -186.5t186.5 -488.5q0 -189 -79 -344.5
t-221 -242.5v-17h300v-199h-544v252q162 96 239.5 227.5t77.5 310.5zM94 1087l87 356h239l-138 -356h-188z" />
    <glyph glyph-name="iotadieresistonosgreek" unicode="&#x390;" horiz-adv-x="646" 
d="M156 1089h215v-746q0 -85 35.5 -124.5t116.5 -39.5q16 0 64 5v-179q-53 -11 -108 -11q-175 0 -249 69.5t-74 225.5v800zM-65 1265q-55 0 -92.5 37.5t-37.5 92.5t37.5 92t92.5 37t92.5 -37t37.5 -92t-37.5 -92.5t-92.5 -37.5zM631 1265q-55 0 -92 37.5t-37 92.5t37 92
t92 37t92.5 -37t37.5 -92t-37.5 -92.5t-92.5 -37.5zM167 1265l33 355h224l-84 -355h-173z" />
    <glyph glyph-name="Alphagreek" unicode="&#x391;" horiz-adv-x="1423" 
d="M1115 0l-132 383h-550l-133 -383h-230l521 1443h241l521 -1443h-238zM700 1181l-210 -610h436l-209 610h-17z" />
    <glyph glyph-name="Betagreek" unicode="&#x392;" horiz-adv-x="1373" 
d="M774 0h-593v1443h580q203 0 318.5 -96.5t115.5 -263.5q0 -113 -73 -202.5t-180 -107.5v-17q146 -15 235.5 -110.5t89.5 -236.5q0 -191 -131 -300t-362 -109zM405 1253v-421h266q148 0 224.5 53.5t76.5 156.5q0 100 -69.5 155.5t-193.5 55.5h-304zM405 190h324
q151 0 230 60t79 175q0 113 -82 171.5t-240 58.5h-311v-465z" />
    <glyph glyph-name="Gammagreek" unicode="&#x393;" horiz-adv-x="1171" 
d="M405 0h-224v1443h881v-204h-657v-1239z" />
    <glyph glyph-name="Deltagreek" unicode="&#x2206;" horiz-adv-x="1434" 
d="M1328 0h-1221v149l489 1294h242l490 -1294v-149zM351 221v-17h724v17l-353 970h-16z" />
    <glyph glyph-name="Deltagreek" unicode="&#x394;" horiz-adv-x="1434" 
d="M1328 0h-1221v149l489 1294h242l490 -1294v-149zM351 221v-17h724v17l-353 970h-16z" />
    <glyph glyph-name="Epsilongreek" unicode="&#x395;" horiz-adv-x="1239" 
d="M1097 204v-204h-916v1443h916v-204h-692v-408h655v-194h-655v-433h692z" />
    <glyph glyph-name="Zetagreek" unicode="&#x396;" horiz-adv-x="1365" 
d="M141 0v161l784 1061v17h-760v204h1041v-161l-780 -1061v-17h799v-204h-1084z" />
    <glyph glyph-name="Etagreek" unicode="&#x397;" horiz-adv-x="1550" 
d="M1369 0h-223v633h-741v-633h-224v1443h224v-606h741v606h223v-1443z" />
    <glyph glyph-name="Thetagreek" unicode="&#x398;" horiz-adv-x="1625" 
d="M1098 617h-572v202h572v-202zM814 1478q322 0 505.5 -198.5t183.5 -557.5q0 -358 -184 -557.5t-505 -199.5q-323 0 -507.5 199.5t-184.5 557.5q0 359 185.5 557.5t506.5 198.5zM814 1271q-213 0 -337.5 -144t-124.5 -405t123 -405.5t339 -144.5q213 0 336 144.5
t123 405.5t-123 405t-336 144z" />
    <glyph glyph-name="Iotagreek" unicode="&#x399;" horiz-adv-x="585" 
d="M405 0h-224v1443h224v-1443z" />
    <glyph glyph-name="Kappagreek" unicode="&#x39a;" horiz-adv-x="1386" 
d="M405 0h-224v1443h224v-676h16l597 676h265l-558 -627l606 -816h-280l-484 655l-162 -181v-474z" />
    <glyph glyph-name="Lambdagreek" unicode="&#x39b;" horiz-adv-x="1406" 
d="M1084 0l-375 1169h-17l-379 -1169h-232l501 1443h242l501 -1443h-241z" />
    <glyph glyph-name="Mugreek" unicode="&#x39c;" horiz-adv-x="1822" 
d="M1641 0h-208v1042h-14l-423 -1000h-170l-423 1000h-14v-1042h-208v1443h262l459 -1096h17l460 1096h262v-1443z" />
    <glyph glyph-name="Nugreek" unicode="&#x39d;" horiz-adv-x="1539" 
d="M399 0h-218v1443h202l741 -1025h16v1025h218v-1443h-202l-741 1025h-16v-1025z" />
    <glyph glyph-name="Xigreek" unicode="&#x39e;" horiz-adv-x="1354" 
d="M142 1443h1069v-210h-1069v210zM1124 631h-895v201h895v-201zM142 210h1069v-210h-1069v210z" />
    <glyph glyph-name="Omicrongreek" unicode="&#x39f;" horiz-adv-x="1590" 
d="M796 1478q312 0 492 -203.5t180 -552.5t-180 -553t-492 -204q-313 0 -493.5 203.5t-180.5 553.5q0 349 181.5 552.5t492.5 203.5zM796 1269q-204 0 -324.5 -148t-120.5 -399t119 -399.5t326 -148.5q205 0 324 148.5t119 399.5q0 252 -119 399.5t-324 147.5z" />
    <glyph glyph-name="Pigreek" unicode="&#x3a0;" horiz-adv-x="1530" 
d="M1349 0h-223v1239h-721v-1239h-224v1443h1168v-1443z" />
    <glyph glyph-name="Rhogreek" unicode="&#x3a1;" horiz-adv-x="1329" 
d="M181 1443h565q212 0 344 -133.5t132 -347.5q0 -211 -135 -343.5t-348 -132.5h-334v-486h-224v1443zM405 1245v-562h282q145 0 225.5 72.5t80.5 206.5q0 137 -79 210t-227 73h-282z" />
    <glyph glyph-name="Sigmagreek" unicode="&#x3a3;" horiz-adv-x="1345" 
d="M424 221v-17h781v-204h-1064v158l404 566l-386 535v184h1027v-204h-740v-17l334 -469v-34z" />
    <glyph glyph-name="Taugreek" unicode="&#x3a4;" horiz-adv-x="1317" 
d="M771 0h-224v1239h-454v204h1131v-204h-453v-1239z" />
    <glyph glyph-name="Upsilongreek" unicode="&#x3a5;" horiz-adv-x="1383" 
d="M803 0h-224v582l-508 861h249l363 -625h17l363 625h249l-509 -861v-582z" />
    </font>
</defs>
</svg>
